Война против всех / War on Everyone (Джон Майкл МакДона / John Michael McDonagh) [2016, Великобритания, комедия, BDRip-AVC] Dub + Original Eng + Sub (Rus, Eng)

Reply to topic
 
Author
Message

Satyr ®

Gender: Unknown

Longevity: 10 years

Posts: 14651

Reputation: 54 [+] [-]

Satyr · Post 06-Feb-2017 09:25

[Quote] 

Война против всех / War on Everyone- Страна: Великобритания
Жанр: комедия
Год выпуска: 2016
Продолжительность: 01:37:54
Перевод: Профессиональный (дублированный)
Cубтитры: русские, английские
Оригинальная аудиодорожка: английский
Режиссер: Джон Майкл МакДона / John Michael McDonagh
В ролях: Александр Скарсгард, Майкл Пенья, Тесса Томпсон, Тео Джеймс, Калеб Лэндри Джонс, Малкольм Баррет, Дэвид Уилмот, Стефани Сигман, Пол Райзер, Джеффри Померой
Описание: Двое коррумпированных копов-отморозков из Нью-Мексико прессуют всех, кто попадается им под руку... или под колеса авто. Судьба подкидывает им шанс срубить целый миллион долларов, но на смачный куш также претендует эксцентричный английский лорд не без странных пристрастий. В борьбе за заслуженный улов напарники случайно узнают о стрёмных секретах красавчика-лорда и впрягаются нести возмездие. Плохим копам не терпится попробовать нечто совсем новое — борьбу за справедливость... ну, за то, как они понимают справедливость.
Сэмпл: http://sendfile.su/1305936

Качество видео: BDRip-AVC (War on Everyone.2016.REMUX | rutor)
Формат видео: MKV
Видео: x264, 1060x444 (2.40:1) 24 fps, ~2418 kbps, 0,171 bit/pixel
Аудио 1: 48 kHz, AC3 Dolby Digital, 3/2 (L,C,R,l,r) + LFE ch, ~384 kbps [русский, iTunes Russia]
Аудио 2: 48 kHz, AC3 Dolby Digital, 3/2 (L,C,R,l,r) + LFE ch, ~384 kbps [английский]
Формат субтитров: softsub (SRT)

MediaInfo

General
Unique ID : 170216531764015658694431608299416395123 (0x800E82F54B8A5D6B90CFF8B7B82B1D73)
Format : Matroska
Format version : Version 4 / Version 2
File size : 1.47 GiB
Duration : 1h 37mn
Overall bit rate : 2 147 Kbps
Encoded date : UTC 2017-02-05 06:49:08
Writing application : mkvmerge v9.8.0 ('Kuglblids') 64bit
Writing library : libebml v1.3.4 + libmatroska v1.4.5
Video #1
ID : 1
Format : AVC
Format/Info : Advanced Video Codec
Format profile : High@L4.1
Format settings, CABAC : Yes
Format settings, ReFrames : 10 frames
Codec ID : V_MPEG4/ISO/AVC
Duration : 1h 37mn
Bit rate : 1 377 Kbps
Width : 1 060 pixels
Height : 444 pixels
Display aspect ratio : 2.40:1
Frame rate mode : Constant
Frame rate : 24.000 fps
Color space : YUV
Chroma subsampling : 4:2:0
Bit depth : 8 bits
Scan type : Progressive
Bits/(Pixel*Frame) : 0.122
Stream size : 964 MiB (64%)
Writing library : x264 core 148 r2638 7599210
Encoding settings : cabac=1 / ref=10 / deblock=1:-3:-2 / analyse=0x3:0x133 / me=umh / subme=10 / psy=1 / psy_rd=1.00:0.00 / mixed_ref=1 / me_range=32 / chroma_me=1 / trellis=2 / 8x8dct=1 / cqm=0 / deadzone=21,11 / fast_pskip=1 / chroma_qp_offset=-2 / threads=6 / lookahead_threads=1 / sliced_threads=0 / nr=0 / decimate=1 / interlaced=0 / bluray_compat=0 / constrained_intra=0 / bframes=12 / b_pyramid=2 / b_adapt=2 / b_bias=0 / direct=1 / weightb=1 / open_gop=0 / weightp=2 / keyint=250 / keyint_min=23 / scenecut=40 / intra_refresh=0 / rc_lookahead=60 / rc=2pass / mbtree=1 / bitrate=1377 / ratetol=1.0 / qcomp=0.60 / qpmin=0 / qpmax=69 / qpstep=4 / cplxblur=20.0 / qblur=0.5 / ip_ratio=1.40 / aq=3:1.00
Language : English
Default : Yes
Forced : No
Audio #2
ID : 2
Format : AC-3
Format/Info : Audio Coding 3
Mode extension : CM (complete main)
Format settings, Endianness : Big
Codec ID : A_AC3
Duration : 1h 37mn
Bit rate mode : Constant
Bit rate : 384 Kbps
Channel(s) : 6 channels
Channel positions : Front: L C R, Side: L R, LFE
Sampling rate : 48.0 KHz
Frame rate : 31.250 fps (1536 spf)
Compression mode : Lossy
Stream size : 269 MiB (18%)
Title : DUB | iTunes
Language : Russian
Default : Yes
Forced : No
Audio #3
ID : 3
Format : AC-3
Format/Info : Audio Coding 3
Mode extension : CM (complete main)
Format settings, Endianness : Big
Codec ID : A_AC3
Duration : 1h 37mn
Bit rate mode : Constant
Bit rate : 384 Kbps
Channel(s) : 6 channels
Channel positions : Front: L C R, Side: L R, LFE
Sampling rate : 48.0 KHz
Frame rate : 31.250 fps (1536 spf)
Compression mode : Lossy
Stream size : 269 MiB (18%)
Language : English
Default : No
Forced : No
Text #4
ID : 4
Format : UTF-8
Codec ID : S_TEXT/UTF8
Codec ID/Info : UTF-8 Plain Text
Duration : 1h 14mn
Bit rate : 1 bps
Count of elements : 9
Stream size : 608 Bytes (0%)
Title : Forced
Language : Russian
Default : Yes
Forced : No
Text #5
ID : 5
Format : UTF-8
Codec ID : S_TEXT/UTF8
Codec ID/Info : UTF-8 Plain Text
Duration : 1h 32mn
Bit rate : 91 bps
Count of elements : 1491
Stream size : 61.6 KiB (0%)
Title : Full
Language : Russian
Default : No
Forced : No
Text #6
ID : 6
Format : UTF-8
Codec ID : S_TEXT/UTF8
Codec ID/Info : UTF-8 Plain Text
Duration : 1h 32mn
Bit rate : 66 bps
Count of elements : 1500
Stream size : 45.1 KiB (0%)
Title : Full
Language : English
Default : No
Forced : No
Text #7
ID : 7
Format : UTF-8
Codec ID : S_TEXT/UTF8
Codec ID/Info : UTF-8 Plain Text
Duration : 1h 32mn
Bit rate : 72 bps
Count of elements : 1674
Stream size : 49.2 KiB (0%)
Title : SDH
Language : English
Default : No
Forced : No

лог

raw [info]: 1060x444p 1:1 @ 10000000/416667 fps (cfr)
x264 [info]: using SAR=1/1
x264 [info]: using cpu capabilities: MMX2 SSE2Fast SSSE3 SSE4.2 AVX XOP FMA4 FMA3 LZCNT BMI1
x264 [info]: profile High, level 4.1
x264 [info]: frame I:1336 Avg QP:14.88 size: 80856
x264 [info]: frame P:30114 Avg QP:18.67 size: 16786
x264 [info]: frame B:109515 Avg QP:22.13 size: 3629
x264 [info]: consecutive B-frames: 2.6% 2.9% 6.8% 16.3% 15.8% 43.6% 6.1% 1.7% 1.2% 0.9% 0.8% 0.6% 0.7%
x264 [info]: mb I I16..4: 9.2% 65.6% 25.2%
x264 [info]: mb P I16..4: 1.4% 5.7% 1.2% P16..4: 41.9% 17.9% 16.0% 0.7% 0.3% skip:15.0%
x264 [info]: mb B I16..4: 0.1% 0.3% 0.1% B16..8: 39.3% 6.9% 1.6% direct: 2.3% skip:49.3% L0:45.5% L1:47.1% BI: 7.4%
x264 [info]: 8x8 transform intra:67.3% inter:64.8%
x264 [info]: coded y,uvDC,uvAC intra: 75.7% 77.9% 55.9% inter: 12.7% 11.7% 3.1%
x264 [info]: i16 v,h,dc,p: 34% 17% 7% 42%
x264 [info]: i8 v,h,dc,ddl,ddr,vr,hd,vl,hu: 11% 12% 8% 9% 13% 12% 12% 11% 12%
x264 [info]: i4 v,h,dc,ddl,ddr,vr,hd,vl,hu: 11% 15% 5% 9% 14% 13% 12% 10% 12%
x264 [info]: i8c dc,h,v,p: 38% 25% 20% 18%
x264 [info]: Weighted P-Frames: Y:2.9% UV:2.1%
x264 [info]: ref P L0: 46.8% 10.1% 16.8% 6.7% 5.5% 4.3% 3.7% 2.1% 1.9% 1.8% 0.3% 0.0%
x264 [info]: ref B L0: 69.7% 12.6% 7.2% 3.3% 2.5% 2.0% 1.7% 0.7% 0.3%
x264 [info]: ref B L1: 90.6% 9.4%
x264 [info]: kb/s:1376.88
x264 [total]: encoded 140965 frames, 12.06 fps, 1376.89 kb/s

Скриншоты


[Profile]  [PM] 
Display posts:    
Reply to topic

Current time is: 15-Dec 12:44

All times are UTC + 2



You cannot post new topics in this forum
You cannot reply to topics in this forum
You cannot edit your posts in this forum
You cannot delete your posts in this forum
You cannot vote in polls in this forum
You cannot attach files in this forum
You cannot download files in this forum