Минута молчания / Schweigeminute (Торстен Шмидт / Thorsten Schmidt) [2016, Германия, Драма, мелодрама, SATRip] VO (Павел Морозов)

Reply to topic
 
Author
Message

Satyr ®

Gender: Unknown

Longevity: 10 years

Posts: 14656

Reputation: 54 [+] [-]

Satyr · Post 06-Feb-2017 09:25

[Quote] 

Минута молчания / Schweigeminute
Страна: Германия
Жанр: Драма, мелодрама
Год выпуска: 2016
Продолжительность: 01:28:10
Перевод: Одноголосый закадровый - Павел Морозов (по субтитрам Константина Ломова)
Cубтитры: нет
Режиссер: Торстен Шмидт / Thorsten Schmidt
В ролях: Юлия Кошиц, Йонас Нэй, Туре Линдхардт, Уве Пройсс, Александер Хельд, Йоханнес Алльмайер, Нина Петри, Райнер Рейнерс, Хенни Реентс, Герман Бейер
Описание: Фильм снят по мотивам одноименного рассказа Зигфрида Ленца
60-е годы, рыбацкий посёлок на Балтийском море. К началу учебного года после нескольких лет жизни в Англии в поселок возвращается Стелла и устраивается учителем английского в местную школу. Там и вспыхивает у нее бурный роман с 18-летним Кристианом. Но только длился он недолго…
Сэмпл: http://multi-up.com/1139096
Качество видео: SATRip
Формат видео: MKV
Видео: MPEG-4 AVC, 1280x720 (16:9), 25.000 fps, 3 500 Kbps
Аудио: 48.0 kHz, MPEG Layer 3, 2 ch, 192 kbps

MediaInfo

General
Complete name : Downloads\Schweigeminute.Sat-Rip.2016.mkv
Format : Matroska
Format version : Version 4 / Version 2
File size : 2.31 GiB
Duration : 1h 28mn
Overall bit rate : 3 733 Kbps
Encoded date : UTC 2016-10-31 22:05:31
Writing application : mkvmerge v6.6.0 ('The Edge Of The In Between') built on Dec 1 2013 17:55:00
Writing library : Lavf55.37.102
Video #1
ID : 1
Format : AVC
Format/Info : Advanced Video Codec
Format profile : High@L3.2
Format settings, CABAC : Yes
Format settings, ReFrames : 4 frames
Codec ID : V_MPEG4/ISO/AVC
Duration : 1h 28mn
Bit rate : 3 500 Kbps
Width : 1 280 pixels
Height : 720 pixels
Display aspect ratio : 16:9
Frame rate mode : Constant
Frame rate : 25.000 fps
Color space : YUV
Chroma subsampling : 4:2:0
Bit depth : 8 bits
Scan type : Progressive
Bits/(Pixel*Frame) : 0.152
Stream size : 2.15 GiB (93%)
Writing library : x264 core 142 r2431
Encoding settings : cabac=1 / ref=4 / deblock=1:0:0 / analyse=0x3:0x133 / me=hex / subme=7 / psy=1 / psy_rd=1.00:0.00 / mixed_ref=0 / me_range=16 / chroma_me=1 / trellis=1 / 8x8dct=1 / cqm=0 / deadzone=21,11 / fast_pskip=1 / chroma_qp_offset=-2 / threads=12 / lookahead_threads=2 / sliced_threads=0 / nr=0 / decimate=1 / interlaced=0 / bluray_compat=0 / constrained_intra=0 / bframes=3 / b_pyramid=0 / b_adapt=1 / b_bias=0 / direct=3 / weightb=1 / open_gop=0 / weightp=0 / keyint=250 / keyint_min=25 / scenecut=40 / intra_refresh=0 / rc_lookahead=40 / rc=abr / mbtree=1 / bitrate=3500 / ratetol=1.0 / qcomp=0.60 / qpmin=10 / qpmax=51 / qpstep=4 / vbv_maxrate=24000 / vbv_bufsize=24000 / nal_hrd=none / filler=0 / ip_ratio=1.40 / aq=1:1.00
Default : Yes
Forced : No
Audio #2
ID : 2
Format : MPEG Audio
Format version : Version 1
Format profile : Layer 3
Mode : Joint stereo
Mode extension : MS Stereo
Codec ID : A_MPEG/L3
Codec ID/Hint : MP3
Duration : 1h 28mn
Bit rate mode : Constant
Bit rate : 192 Kbps
Channel(s) : 2 channels
Sampling rate : 48.0 KHz
Compression mode : Lossy
Delay relative to video : -40ms
Stream size : 122 MiB (5%)
Default : Yes
Forced : No

Скриншот c названием фильма

Скриншоты

[Profile]  [PM] 
Display posts:    
Reply to topic

Current time is: 16-Dec 10:32

All times are UTC + 2



You cannot post new topics in this forum
You cannot reply to topics in this forum
You cannot edit your posts in this forum
You cannot delete your posts in this forum
You cannot vote in polls in this forum
You cannot attach files in this forum
You cannot download files in this forum