Выбор короля / Kongens nei / The King\'s Choice (Эрик Поппе / Erik Poppe) [2016, Норвегия, исторический, драма, HDRip] MVO (GreenРай Studio)

Reply to topic
 
Author
Message

Satyr ®

Gender: Unknown

Longevity: 10 years

Posts: 14656

Reputation: 54 [+] [-]

Satyr · Post 06-Feb-2017 17:40

[Quote] 

Выбор короля / KONGENS NEI / The King's Choice
Страна: Норвегия, Ирландия
Жанр: История, военный, драма
Год выпуска: 2016
Продолжительность: 02:10:24-Перевод: Любительский (многоголосый закадровый) [GreenРай Studio]
Cубтитры: нет
Режиссер: Эрик Поппе / Erik Poppe-В ролях: Еспер Кристенсен, Андерс Баасмо Кристиансен, Карл Маркович, Артур Хакалахти, Свейн Тиндберг, Тува Новотны, Кэтиль Хеег-Описание:Реконструкция событий апреля 1940 года, когда Германия вторглась на территорию Норвегии и потребовала от норвежского правительства подписать акт о безоговорочной капитуляции. Правительство в панике подает в полном составе в отставку и перекладывает ответственность за принятие решения на формального главу государства — короля Хоконa VII. И перед Королем Норвегии встает очень непростой выбор, ведь от его решения зависит судьба его страны.- -Качество видео: HDRip
Формат видео: AVI [Kongens.Nei.2016.1080p.BluRay.DD5.1.x264-YESRLY]
Видео: XviD MPEG-4, 720x304 (2.35:1), 25 000 fps, ~1352 Kbps, 0.247 bit/pixe
Аудио: 48 kHz, AC3 Dolby Digital, 2/0 (L,R) ch, 192 kbps - MVO

Знаете ли вы, что...

- Фильм был выдвинут Норвегией на премию «Оскар» за лучший фильм на иностранном языке.
- Самый кассовый фильм 2016 года в Норвегии!
- Фильм создан на исторических событиях!

MediaInfo

General
Complete name : D:\Vibor.kopolya.2016.HDRip.MVO.denShark.avi
Format : AVI
Format/Info : Audio Video Interleave
File size : 1.42 GiB
Duration : 2h 10mn
Overall bit rate : 1 554 Kbps
Writing application : VirtualDubMod 1.5.10.3 (build 2550/release)
Writing library : VirtualDubMod build 2550/release
Video
ID : 0
Format : MPEG-4 Visual
Format profile : Advanced Simple@L5
Format settings, BVOP : 1
Format settings, QPel : No
Format settings, GMC : No warppoints
Format settings, Matrix : Default (H.263)
Codec ID : XVID
Codec ID/Hint : XviD
Duration : 2h 10mn
Bit rate : 1 352 Kbps
Width : 720 pixels
Height : 304 pixels
Display aspect ratio : 2.35:1
Frame rate : 25.000 fps
Color space : YUV
Chroma subsampling : 4:2:0
Bit depth : 8 bits
Scan type : Progressive
Compression mode : Lossy
Bits/(Pixel*Frame) : 0.247
Stream size : 1.23 GiB (87%)
Writing library : XviD 1.2.1 (UTC 2008-12-04)
Audio
ID : 1
Format : AC-3
Format/Info : Audio Coding 3
Mode extension : CM (complete main)
Format settings, Endianness : Big
Codec ID : 2000
Duration : 2h 10mn
Bit rate mode : Constant
Bit rate : 192 Kbps
Channel(s) : 2 channels
Channel positions : Front: L R
Sampling rate : 48.0 KHz
Bit depth : 16 bits
Compression mode : Lossy
Stream size : 179 MiB (12%)
Alignment : Split accross interleaves
Interleave, duration : 40 ms (1.00 video frame)
Interleave, preload duration : 500 ms

Скриншоты


[Profile]  [PM] 
Display posts:    
Reply to topic

Current time is: 16-Dec 10:32

All times are UTC + 2



You cannot post new topics in this forum
You cannot reply to topics in this forum
You cannot edit your posts in this forum
You cannot delete your posts in this forum
You cannot vote in polls in this forum
You cannot attach files in this forum
You cannot download files in this forum