Пункт назначения 4 / The Final Destination (Дэвид Р. Эллис / David R. Ellis) [2009, США, ужасы, триллер, BDRip-AVC] Dub + DVO + AVO + Original Eng + Sub (Rus, Eng)

Reply to topic
 
Author
Message

Advocat ®

Gender: Unknown

Longevity: 10 years

Posts: 2896

Reputation: 0 [+] [-]

Advocat · Post 06-Feb-2017 17:40

[Quote] 

Пункт назначения 4 / The Final Destination- Страна: США
Жанр: ужасы, триллер
Год выпуска: 2009
Продолжительность: 01:21:47
Перевод 1: Профессиональный (дублированный)
Перевод 2: Профессиональный (двухголосый закадровый) П. Гланц и И. Королева
Перевод 3: Авторский (одноголосый закадровый) Ю. Сербин
Cубтитры: русские, английские
Оригинальная аудиодорожка: английский
Режиссер: Дэвид Р. Эллис / David R. Ellis
В ролях: Криста Аллен, Ник Зано, Микелти Уильямсон, Бобби Кампо, Стефани Онор, Эндрю Фиссела, Билли Слоутер, Джастин Велборн, Дженна Крэйг, Лара Грайс
Описание: Загадочное предчувствие заставило друзей покинуть автогонки за секунду до того, как произошла страшная авария, в результате которой горящие запчасти машин полетели в зрителей на трибунах. Им удалось обмануть Смерть. Но у Смерти на них другие планы.
Сэмпл: http://sendfile.su/1305953

Качество видео: BDRip-AVC (Пункт назначения 4 2009 Blu-ray Disc 1080p)
Формат видео: MKV
Видео: x264, 1084x452 (2.40:1) 23,976 fps, ~2921 kbps, 0,249 bit/pixel
Аудио 1: 48 kHz, AC3 Dolby Digital, 3/2 (L,C,R,l,r) + LFE ch, ~448 kbps | Дубляж, Blu-ray
Аудио 2: 48 kHz, AC3 Dolby Digital, 3/2 (L,C,R,l,r) + LFE ch, ~448 kbps | Английский
---------------------------------------отдельно---------------------------------------------------
Аудио 3: 48 kHz, AC3 Dolby Digital, 3/2 (L,C,R,l,r) + LFE ch, ~384 kbps | Гланц и Королева
Аудио 4: 48 kHz, AC3 Dolby Digital, 3/2 (L,C,R,l,r) + LFE ch, ~448 kbps | Сербин
Формат субтитров: softsub (SRT)

MediaInfo

General
Unique ID : 201270168161806542216454308111320553222 (0x976B3970CD3E06138B29FBA15AF71706)
Format : Matroska
Format version : Version 4 / Version 2
File size : 2.18 GiB
Duration : 1h 21mn
Overall bit rate : 3 818 Kbps
Encoded date : UTC 2017-02-05 14:22:41
Writing application : mkvmerge v9.8.0 ('Kuglblids') 64bit
Writing library : libebml v1.3.4 + libmatroska v1.4.5
Video #1
ID : 1
Format : AVC
Format/Info : Advanced Video Codec
Format profile : High@L4.1
Format settings, CABAC : Yes
Format settings, ReFrames : 11 frames
Codec ID : V_MPEG4/ISO/AVC
Duration : 1h 21mn
Bit rate : 2 921 Kbps
Width : 1 084 pixels
Height : 452 pixels
Display aspect ratio : 2.40:1
Frame rate mode : Constant
Frame rate : 23.976 (24000/1001) fps
Color space : YUV
Chroma subsampling : 4:2:0
Bit depth : 8 bits
Scan type : Progressive
Bits/(Pixel*Frame) : 0.249
Stream size : 1.67 GiB (76%)
Writing library : x264 core 148 r2638 7599210
Encoding settings : cabac=1 / ref=11 / deblock=1:-3:-2 / analyse=0x3:0x133 / me=umh / subme=10 / psy=1 / psy_rd=1.00:0.00 / mixed_ref=1 / me_range=32 / chroma_me=1 / trellis=2 / 8x8dct=1 / cqm=0 / deadzone=21,11 / fast_pskip=1 / chroma_qp_offset=-2 / threads=6 / lookahead_threads=1 / sliced_threads=0 / nr=0 / decimate=1 / interlaced=0 / bluray_compat=0 / constrained_intra=0 / bframes=11 / b_pyramid=2 / b_adapt=2 / b_bias=0 / direct=1 / weightb=1 / open_gop=0 / weightp=2 / keyint=250 / keyint_min=23 / scenecut=40 / intra_refresh=0 / rc_lookahead=60 / rc=2pass / mbtree=1 / bitrate=2921 / ratetol=1.0 / qcomp=0.60 / qpmin=0 / qpmax=69 / qpstep=4 / cplxblur=20.0 / qblur=0.5 / ip_ratio=1.40 / aq=3:1.00
Language : English
Default : Yes
Forced : No
Audio #2
ID : 2
Format : AC-3
Format/Info : Audio Coding 3
Mode extension : CM (complete main)
Format settings, Endianness : Big
Codec ID : A_AC3
Duration : 1h 21mn
Bit rate mode : Constant
Bit rate : 448 Kbps
Channel(s) : 6 channels
Channel positions : Front: L C R, Side: L R, LFE
Sampling rate : 48.0 KHz
Frame rate : 31.250 fps (1536 spf)
Compression mode : Lossy
Stream size : 262 MiB (12%)
Language : Russian
Default : Yes
Forced : No
Audio #3
ID : 3
Format : AC-3
Format/Info : Audio Coding 3
Mode extension : CM (complete main)
Format settings, Endianness : Big
Codec ID : A_AC3
Duration : 1h 21mn
Bit rate mode : Constant
Bit rate : 448 Kbps
Channel(s) : 6 channels
Channel positions : Front: L C R, Side: L R, LFE
Sampling rate : 48.0 KHz
Frame rate : 31.250 fps (1536 spf)
Compression mode : Lossy
Stream size : 262 MiB (12%)
Language : English
Default : No
Forced : No
Text #4
ID : 4
Format : UTF-8
Codec ID : S_TEXT/UTF8
Codec ID/Info : UTF-8 Plain Text
Duration : 1h 15mn
Bit rate : 74 bps
Count of elements : 807
Stream size : 41.4 KiB (0%)
Language : Russian
Default : Yes
Forced : No
Text #5
ID : 5
Format : UTF-8
Codec ID : S_TEXT/UTF8
Codec ID/Info : UTF-8 Plain Text
Duration : 1h 15mn
Bit rate : 46 bps
Count of elements : 776
Stream size : 26.0 KiB (0%)
Language : English
Default : No
Forced : No

лог

raw [info]: 1084x452p 1:1 @ 24000/1001 fps (cfr)
x264 [info]: using SAR=1/1
x264 [info]: using cpu capabilities: MMX2 SSE2Fast SSSE3 SSE4.2 AVX XOP FMA4 FMA3 LZCNT BMI1
x264 [info]: profile High, level 4.1
x264 [info]: frame I:1098 Avg QP:16.42 size:105572
x264 [info]: frame P:29843 Avg QP:20.11 size: 29089
x264 [info]: frame B:86720 Avg QP:22.66 size: 9306
x264 [info]: consecutive B-frames: 4.3% 4.3% 9.4% 31.1% 18.4% 27.6% 2.9% 0.9% 0.4% 0.3% 0.2% 0.2%
x264 [info]: mb I I16..4: 5.0% 65.0% 29.9%
x264 [info]: mb P I16..4: 1.5% 11.0% 2.5% P16..4: 36.7% 21.6% 17.0% 1.0% 0.3% skip: 8.3%
x264 [info]: mb B I16..4: 0.1% 1.6% 0.5% B16..8: 38.8% 11.9% 3.8% direct: 4.9% skip:38.4% L0:43.9% L1:44.9% BI:11.2%
x264 [info]: 8x8 transform intra:71.8% inter:62.9%
x264 [info]: coded y,uvDC,uvAC intra: 85.8% 80.9% 56.4% inter: 26.5% 21.6% 7.2%
x264 [info]: i16 v,h,dc,p: 28% 31% 9% 33%
x264 [info]: i8 v,h,dc,ddl,ddr,vr,hd,vl,hu: 9% 10% 7% 9% 14% 13% 14% 11% 13%
x264 [info]: i4 v,h,dc,ddl,ddr,vr,hd,vl,hu: 14% 12% 4% 8% 14% 12% 14% 10% 12%
x264 [info]: i8c dc,h,v,p: 40% 25% 17% 17%
x264 [info]: Weighted P-Frames: Y:4.4% UV:2.5%
x264 [info]: ref P L0: 46.9% 13.1% 16.2% 5.7% 5.0% 3.3% 3.2% 1.7% 1.7% 1.3% 1.4% 0.3% 0.0%
x264 [info]: ref B L0: 71.4% 11.8% 5.8% 3.2% 2.3% 2.0% 1.6% 1.0% 0.6% 0.3%
x264 [info]: ref B L1: 92.4% 7.6%
x264 [info]: kb/s:2919.73
x264 [total]: encoded 117661 frames, 8.45 fps, 2919.73 kb/s

Скриншоты


Пункт назначения
Пункт назначения 2
Пункт назначения 3
[Profile]  [PM] 
Display posts:    
Reply to topic

Current time is: 15-Dec 05:21

All times are UTC + 2



You cannot post new topics in this forum
You cannot reply to topics in this forum
You cannot edit your posts in this forum
You cannot delete your posts in this forum
You cannot vote in polls in this forum
You cannot attach files in this forum
You cannot download files in this forum