Любовь, сбивающая с ног / Ошеломляющая любовь / Пьянящая любовь / Punch-Drunk Love (Пол Томас Андерсон / Paul Thomas Anderson) [2002, США, триллер, драма, мелодрама, комедия, BDRip] 2xDVO (НТВ+, Видеосервис) + Original Eng + subs (Rus, Eng, Eng SDH)

Reply to topic
 
Author
Message

Wolf ®

Gender: Unknown

Longevity: 10 years

Posts: 2813

Reputation: 0 [+] [-]

Wolf · Post 06-Feb-2017 21:45

[Quote] 

Любовь, сбивающая с ног / Ошеломляющая любовь / Пьянящая любовь / Punch-Drunk Love- Год выпуска: 2002
Выпущено: США
Жанр: триллер, драма, мелодрама, комедия
Продолжительность: 01:35:19
Перевод: Профессиональный (двухголосый, закадровый) НТВ+
+ Профессиональный (двухголосый, закадровый) Видеосервис (отдельно)
+ Оригинальная звуковая дорожка (отдельно)
Субтитры: Русские, английские (полные, SDH) (внешние srt*)-Режиссер: Пол Томас Андерсон / Paul Thomas Anderson
В ролях: Адам Сэндлер, Эмили Уотсон, Луис Гусман, Филип Сеймур Хоффман, Мэри Линн Райскаб, Роберт Шмигель, Лиза Спектор, Джули Хермелин, Карен Хермелин, Хэзел Майу
О фильме: Барри Игану крупно не повезло. Быть восьмым ребенком в семье, где все остальные дети девчонки — это судьба не для слабых духом. Неудивительно, что в тени своих семи явно склонных к тирании сестер, строго пресекавших все его попытки завести романтические отношения, парень вырос жутким невротиком с кучей комплексов.
Барри уже глубоко за тридцать, но страдающий от внезапных вспышек ярости герой так и не научился нормально общаться с людьми. С женщинами — в особенности. Но фортуна еще не поставила на Барри крест — однажды он встречает странную девушку, которой суждено перевернуть всю его жизнь…
Релиз:
Автор: yaroslaigor
Качество: BDRip (источник: / BD-Remux / 1080p)
Формат: AVI
Видео: 720x304 (2.37:1), 23.976 fps, XviD build 65 ~1789 kbps avg, 0.34 bit/pixel
Аудио: #1 48 kHz, AC3 Dolby Digital, 3/2 (L,C,R,l,r) + LFE ch, ~384.00 kbps avg rus
Аудио: #2 48 kHz, AC3 Dolby Digital, 3/2 (L,C,R,l,r) + LFE ch, ~384.00 kbps avg eng (отдельно)
Аудио: #3 48 kHz, AC3 Dolby Digital, 3/2 (L,C,R,l,r) + LFE ch, ~384.00 kbps avg eng (отдельно)
Размер: 1488.68 Mb (1/3 DVD)
Скачать: Семпл-

Кадры из фильма


-

Mi

Формат : AVI
Формат/Информация : Audio Video Interleave
Размер файла : 1,45 Гбайт
Продолжительность : 1 ч. 35 м.
Общий поток : 2183 Кбит/сек
Название фильма : Любовь, сбивающая с ног / Ошеломляющая любовь / Пьянящая любовь / Punch-Drunk Love (2002) BDRip
Режиссёр : yaroslaigor
Жанр : триллер, драма, мелодрама
Программа кодирования : VirtualDubMod 1.5.10.2 (build 2542/release)
Правообладатель : HQCLUB
Примечание : 04.02.2017
Видео
Идентификатор : 0
Формат : MPEG-4 Visual
Профиль формата : Advanced Simple@L5
Параметр BVOP формата : 1
Параметр QPel формата : Нет
Параметр GMC формата : Без точки перехода
Параметр матрицы формата : Выборочная
Идентификатор кодека : XVID
Идентификатор кодека/Подсказка : XviD
Продолжительность : 1 ч. 35 м.
Битрейт : 1790 Кбит/сек
Ширина : 720 пикселей
Высота : 304 пикселя
Соотношение сторон : 2,35:1
Частота кадров : 23,976 кадра/сек
Цветовое пространство : YUV
Субдискретизация насыщенности : 4:2:0
Битовая глубина : 8 бит
Тип развёртки : Прогрессивная
Метод сжатия : С потерями
Бит/(Пиксели*Кадры) : 0.341
Размер потока : 1,19 Гбайт (82%)
Библиотека кодирования : XviD 65
Аудио
Идентификатор : 1
Формат : AC-3
Формат/Информация : Audio Coding 3
Расширение режима : CM (complete main)
Параметр Endianness формата : Big
Идентификатор кодека : 2000
Продолжительность : 1 ч. 35 м.
Вид битрейта : Постоянный
Битрейт : 384 Кбит/сек
Каналы : 6 каналов
Расположение каналов : Front: L C R, Side: L R, LFE
Частота : 48,0 КГц
Битовая глубина : 16 бит
Метод сжатия : С потерями
Размер потока : 262 Мбайт (18%)
Выравнивание : Разделение по промежуткам
Продолжительность промежутка : 42 мс. (1,00 видеокадр)
Время предзагрузки промежутка : 500 мс.
-
[Profile]  [PM] 
Display posts:    
Reply to topic

Current time is: 09-Dec 03:40

All times are UTC + 2



You cannot post new topics in this forum
You cannot reply to topics in this forum
You cannot edit your posts in this forum
You cannot delete your posts in this forum
You cannot vote in polls in this forum
You cannot attach files in this forum
You cannot download files in this forum