Замок с огненными воротами / Il castello dalle porte di fuoco / Ivanna: El castillo de la puerta de fuego / Altar of Blood (Хосе Луис Мерино / José Luis Merino (as J.L. Merino)) [1970, Италия, Испания, ужасы, готика, DVD9 (Custom)] VO (ССК+)

Reply to topic
 
Author
Message

Faust ®

Gender: Unknown

Longevity: 8 years 4 months

Posts: 14005

Reputation: 0 [+] [-]

Faust · Post 06-Feb-2017 21:45

[Quote] 

Замок с огненными воротами / Il castello dalle porte di fuoco / Ivanna: El castillo de la puerta de fuego /Altar of Blood / Blood Castle / Killers of the Castle of Blood / Scream of the Demon Lover
Страна: Италия, Испания
Студия: Hispamer Films, Prodimex Film, Órbita Films
Жанр: ужасы, готика
Год выпуска: 1970
Продолжительность: 01:33:34
Перевод: Одноголосый закадровый ССК+
Cубтитры: немецкие
Оригинальная аудиодорожка: итальянский
Режиссер: Хосе Луис Мерино / José Luis Merino (as J.L. Merino)
В ролях: Эрна Шюрер / Erna Schurer, Карлос Квини / Carlos Quiney, Агостина Белли / Agostina Belli
Описание: Красивая молодая женщина приезжает в старинный замок барона Яноса Далмар по его приглашению: ему нужен квалифицированный биохимик. Иванна сразу чувствует симпатию к барону, но старается заглушить ее, с головой погрузившись в работу. Тем временем в округе происходит череда зловещих убийств - уже шестая девушка найдена мертвой. Скоро Иванна понимает, что с бароном связана какая-то тайна, его конные выезды на природу с двумя злобными псами всегда заканчиваются смертью очередной девушки. Вскоре появляется и старший брат Яноса, считавшийся погибшим... скорее, это сам дьявол в холодящем кровь обличье. Он хочет сделать Иванну своей сексуальной рабыней и ни с кем не делить ее...
Доп. информация: Русская звуковая дорожка взята с этой раздачи http://torrentsland.com.ua/forum/viewtopic.php?t=5339893 автору большое спасибо.
За синхронизацию дорожек огромное спасибо Нордер.
При пересборе двд были использованы программы:
VirtualDubMod_1_5_10_2_All_inclusive - извлечение русской дорожки из рипа
PgcDemux - разделение компонентов диска на файлы
Muxman - мультиплексирование и авторинг DVD
VobBlanker - реавторинг DVD

Скрин завершения проекта

Бонусы: Трейлеры, галерея
Сэмпл: http://sendfile.su/1302602
Тип релиза: DVD9 (Custom)
Контейнер: DVD-Video
Видео: PAL 4:3 (720x576) VBR
Аудио: Russian (Dolby AC3, 192 Кбит/сек, 2 ch)
Аудио 2: Deutsch (Dolby AC3, 192 Кбит/сек, 2 ch)
Аудио 3: Italiano (Dolby AC3, 192 Кбит/сек, 2 ch)
Формат субтитров: prerendered (DVD/IDX+SUB)

DVDInfo

Title:
Size: 5.18 Gb ( 5 434 998 KBytes ) - DVD-9
Enabled regions: 1, 2, 3, 4, 5, 6, 7, 8
VTS_01 :
Play Length: 00:00:23
Video: PAL 4:3 (720x576) VBR
Audio:
Deutsch (Dolby AC3, 2 ch)
VTS_02 :
Play Length: 01:33:34
Video: PAL 4:3 (720x576) VBR
Audio:
Russian (Dolby AC3, 2 ch)
Deutsch (Dolby AC3, 2 ch)
Italiano (Dolby AC3, 2 ch)
Subtitles:
Deutsch
Deutsch
VTS_03 :
Play Length: 00:02:45+00:01:22+00:01:54+00:01:16
Video: PAL 4:3 (720x576) VBR
Audio:
Deutsch (Dolby AC3, 2 ch)
Menu Video:
PAL 4:3 (720x576) VBR
Menu Audio:
Not specified (Dolby AC3, 2 ch)
Menu Subtitles:
Not specified
Menu Deutsch Language Unit :
Root Menu
Audio Menu

MediaInfo

Общее
Полное имя : D:\DVD ГОТОВЫЕ\Il castello dalle porte di fuoco_1970\VIDEO_TS\VTS_02_1.VOB
Формат : MPEG-PS
Размер файла : 1024 Мбайт
Продолжительность : 20 м.
Режим общего битрейта : Переменный
Общий поток : 7094 Кбит/сек
Видео
Идентификатор : 224 (0xE0)
Формат : MPEG Video
Версия формата : Version 2
Профиль формата : Main@Main
Параметр BVOP формата : Да
Параметр матрицы формата : Выборочная
Параметр GOP формата : M=3, N=12
Продолжительность : 20 м.
Вид битрейта : Переменный
Битрейт : 6377 Кбит/сек
Максимальный битрейт : 9000 Кбит/сек
Ширина : 720 пикселей
Высота : 576 пикселей
Соотношение сторон : 4:3
Частота кадров : 25,000 кадров/сек
Стандарт вещания : PAL
Цветовое пространство : YUV
Субдискретизация насыщенности : 4:2:0
Битовая глубина : 8 бит
Тип развёртки : Чересстрочная
Порядок развёртки : Верхнее поле первое
Метод сжатия : С потерями
Бит/(Пиксели*Кадры) : 0.615
Временной код первого кадра : 09:59:59:20
Оригинал временного кода : Group of pictures header
Размер потока : 920 Мбайт (90%)
Аудио #1
Идентификатор : 189 (0xBD)-128 (0x80)
Формат : AC-3
Формат/Информация : Audio Coding 3
Расширение режима : CM (complete main)
Параметр Endianness формата : Big
Режим смешивания : DVD-Video
Продолжительность : 20 м.
Вид битрейта : Постоянный
Битрейт : 192 Кбит/сек
Каналы : 2 канала
Расположение каналов : Front: L R
Частота : 48,0 КГц
Битовая глубина : 16 бит
Метод сжатия : С потерями
Задержка видео : -80 мс.
Размер потока : 27,7 Мбайт (3%)
Аудио #2
Идентификатор : 189 (0xBD)-129 (0x81)
Формат : AC-3
Формат/Информация : Audio Coding 3
Расширение режима : CM (complete main)
Параметр Endianness формата : Big
Режим смешивания : DVD-Video
Продолжительность : 20 м.
Вид битрейта : Постоянный
Битрейт : 192 Кбит/сек
Каналы : 2 канала
Расположение каналов : Front: L R
Частота : 48,0 КГц
Битовая глубина : 16 бит
Метод сжатия : С потерями
Задержка видео : -80 мс.
Размер потока : 27,7 Мбайт (3%)
Аудио #3
Идентификатор : 189 (0xBD)-130 (0x82)
Формат : AC-3
Формат/Информация : Audio Coding 3
Расширение режима : CM (complete main)
Параметр Endianness формата : Big
Режим смешивания : DVD-Video
Продолжительность : 20 м.
Вид битрейта : Постоянный
Битрейт : 192 Кбит/сек
Каналы : 2 канала
Расположение каналов : Front: L R
Частота : 48,0 КГц
Битовая глубина : 16 бит
Метод сжатия : С потерями
Задержка видео : -80 мс.
Размер потока : 27,7 Мбайт (3%)
Меню

Скриншоты меню

Скриншоты

[Profile]  [PM] 
Display posts:    
Reply to topic

Current time is: 25-Jan 15:17

All times are UTC + 2



You cannot post new topics in this forum
You cannot reply to topics in this forum
You cannot edit your posts in this forum
You cannot delete your posts in this forum
You cannot vote in polls in this forum
You cannot attach files in this forum
You cannot download files in this forum