Прибытие / Arrival (Дени Вильнёв / Denis Villeneuve) [2016, США, фантастика, триллер, драма, BDRip-AVC] Dub (iTunes) + Sub (rus)

Reply to topic
 
Author
Message

Satyr ®

Online

Gender: Unknown

Longevity: 10 years

Posts: 14643

Reputation: 54 [+] [-]

Satyr · Post 06-Feb-2017 21:45

[Quote] 

Прибытие / Arrival«Почему они здесь?»- Страна: США
Жанр: фантастика, триллер, драма
Год выпуска: 2016
Продолжительность: 01:56:26
Перевод: Профессиональный (дублированный) (iTunes)
Оригинальная аудиодорожка: нет
Субтитры: русские (форс.)
Навигация по главам: есть
Режиссер: Дени Вильнёв / Denis Villeneuve
В ролях: Эми Адамс (Louise Banks), Джереми Реннер (Ian Donnelly), Майкл Стулбарг (Agent Halpern), Форест Уитакер (Colonel Weber), Сангита Патель (Newscaster 1), Ци Ма (General Shang), Эбигейл Пнёвски (Hannah (8 yrs. old)), Марк О’Брайэн (Captain Marks), Рут Чианг (Chinese Scientist), Джейдин Мэлоун (Hannah (6 yr old)), Анана Ридвальд (Danish Scientist), Натали Тибо (Gala Guest)
Описание: Неожиданное появление неопознанных летающих объектов в разных точках планеты повергает мир в трепет. Намерения пришельцев не ясны - вооруженные силы всего мира приведены в полную боевую готовность, а лучшие умы человечества пытаются понять, как разговаривать с непрошенными гостями. Правительство обращается за помощью к лингвисту Луизе Бэнкс и физику Яну Доннели, чтобы предотвратить глобальную катастрофу и найти общий язык с пришельцами. Отныне судьба человечества находится в их руках.- -Качество: BDRip-AVC (исходник - BDRemux|ARRIVAL_REMUX_HDCLUB)
Формат видео: MKV
Видео: x264, 1032x432 (2.40:1) 23,976 fps, ~1398 kbps, 0.131 bit/pixel
Аудио: 48 kHz, AC3 Dolby Digital, 5.1 (Front: L C R, Side: L R, LFE) ch, ~384 kbps
Формат субтитров: softsub (SRT)-

MediaInfo | x264 log

Format : Matroska
Format version : Version 4 / Version 2
File size : 1.48 GiB
Duration : 1h 56 min
Overall bit rate : 1 818 kb/s
Movie name : Прибытие / Arrival (2016) :: AFM ::
Encoded date : UTC 2017-02-06 00:45:32
Writing application : mkvmerge v8.3.0 ('Over the Horizon') 32bit
Writing library : libebml v1.3.1 + libmatroska v1.4.2
Video
ID : 1
Format : AVC
Format/Info : Advanced Video Codec
Format profile : High@L4.1
Format settings, CABAC : Yes
Format settings, ReFrames : 10 frames
Codec ID : V_MPEG4/ISO/AVC
Duration : 1h 56 min
Bit rate : 1 398 kb/s
Width : 1 032 pixels
Height : 432 pixels
Display aspect ratio : 2.40:1
Frame rate mode : Constant
Frame rate : 23.976 (24000/1001) FPS
Color space : YUV
Chroma subsampling : 4:2:0
Bit depth : 8 bits
Scan type : Progressive
Bits/(Pixel*Frame) : 0.131
Stream size : 1.14 GiB (77%)
Title : BDRip by AFM
Writing library : x264 core 148 r2762+56 6284cf3 t_mod_Custom [8-bit@all X86_64]
Encoding settings : cabac=1 / ref=10 / deblock=1:-2:-1 / analyse=0x3:0x113 / me=umh / subme=10 / psy=1 / fade_compensate=0.00 / psy_rd=1.00:0.00 / mixed_ref=1 / me_range=32 / chroma_me=1 / trellis=2 / 8x8dct=1 / cqm=0 / deadzone=21,11 / fast_pskip=0 / chroma_qp_offset=-2 / threads=6 / lookahead_threads=1 / sliced_threads=0 / nr=0 / decimate=1 / interlaced=0 / bluray_compat=0 / constrained_intra=0 / fgo=0 / bframes=14 / b_pyramid=2 / b_adapt=2 / b_bias=0 / direct=1 / weightb=1 / open_gop=0 / weightp=2 / keyint=240 / keyint_min=23 / scenecut=40 / intra_refresh=0 / rc_lookahead=60 / rc=crf / mbtree=0 / crf=16.9000 / qcomp=0.65 / qpmin=0:0:0 / qpmax=69:69:69 / qpstep=4 / vbv_maxrate=50000 / vbv_bufsize=62500 / crf_max=0.0 / nal_hrd=none / filler=0 / ip_ratio=1.25 / pb_ratio=1.20 / aq=3:0.90 / aq-sensitivity=10.00 / aq-factor=1.00:1.00:1.00 / aq2=0 / aq3=0
Language : English
Default : Yes
Forced : No
Color range : Limited
Color primaries : BT.709
Transfer characteristics : BT.709
Matrix coefficients : BT.709
Audio
ID : 2
Format : AC-3
Format/Info : Audio Coding 3
Mode extension : CM (complete main)
Format settings, Endianness : Big
Codec ID : A_AC3
Duration : 1h 56 min
Bit rate mode : Constant
Bit rate : 384 kb/s
Channel(s) : 6 channels
Channel positions : Front: L C R, Side: L R, LFE
Sampling rate : 48.0 kHz
Frame rate : 31.250 FPS (1536 spf)
Compression mode : Lossy
Stream size : 320 MiB (21%)
Title : Dub, AC3 5.1 ~384 kbps
Language : Russian
Default : Yes
Forced : No
Text
ID : 3
Format : UTF-8
Codec ID : S_TEXT/UTF8
Codec ID/Info : UTF-8 Plain Text
Title : forced
Language : Russian
Default : Yes
Forced : No
Menu
00:00:00.000 : en:Chapter 1
00:09:49.922 : en:Chapter 2
00:17:33.551 : en:Chapter 3
00:23:28.280 : en:Chapter 4
00:33:54.156 : en:Chapter 5
00:41:01.707 : en:Chapter 6
00:52:26.100 : en:Chapter 7
00:57:34.576 : en:Chapter 8
01:03:06.448 : en:Chapter 9
01:09:29.206 : en:Chapter 10
01:16:09.398 : en:Chapter 11
01:25:21.823 : en:Chapter 12
01:35:37.064 : en:Chapter 13
01:45:26.694 : en:Chapter 14

x264

x264 [info]: frame I:1064 Avg QP:11.35 size: 44846
x264 [info]: frame P:29079 Avg QP:12.17 size: 17273
x264 [info]: frame B:137362 Avg QP:13.78 size: 5101
x264 [info]: consecutive B-frames: 1.0% 1.4% 1.9% 16.4% 11.4% 27.0% 9.4% 16.7% 4.7% 2.2% 1.7% 3.5% 1.2% 1.1% 0.5%
x264 [info]: mb I I16..4: 8.6% 74.5% 16.9%
x264 [info]: mb P I16..4: 1.3% 7.0% 1.0% P16..4: 35.4% 31.2% 19.4% 0.0% 0.0% skip: 4.7%
x264 [info]: mb B I16..4: 0.1% 0.4% 0.0% B16..8: 36.1% 16.0% 4.2% direct: 3.7% skip:39.4% L0:46.5% L1:45.3% BI: 8.2%
x264 [info]: 8x8 transform intra:74.2% inter:45.7%
x264 [info]: coded y,uvDC,uvAC intra: 81.2% 77.1% 65.0% inter: 16.7% 9.2% 3.0%
x264 [info]: i16 v,h,dc,p: 58% 9% 8% 25%
x264 [info]: i8 v,h,dc,ddl,ddr,vr,hd,vl,hu: 10% 11% 12% 9% 12% 12% 11% 11% 13%
x264 [info]: i4 v,h,dc,ddl,ddr,vr,hd,vl,hu: 8% 9% 6% 11% 16% 13% 13% 11% 13%
x264 [info]: i8c dc,h,v,p: 48% 25% 16% 11%
x264 [info]: Weighted P-Frames: Y:2.4% UV:1.1%
x264 [info]: ref P L0: 49.7% 4.5% 18.0% 7.5% 5.9% 4.6% 3.9% 2.2% 1.9% 1.8% 0.0% 0.0%
x264 [info]: ref B L0: 66.9% 13.7% 7.5% 3.7% 2.8% 2.3% 1.9% 0.8% 0.3%
x264 [info]: ref B L1: 91.8% 8.2%
x264 [info]: kb/s:1432.15

Скриншоты

с названием

[Profile]  [PM] 
Display posts:    
Reply to topic

Current time is: 15-Dec 03:53

All times are UTC + 2



You cannot post new topics in this forum
You cannot reply to topics in this forum
You cannot edit your posts in this forum
You cannot delete your posts in this forum
You cannot vote in polls in this forum
You cannot attach files in this forum
You cannot download files in this forum