Прибытие / Arrival (Дени Вильнёв / Denis Villeneuve) [2016, США, фантастика, триллер, драма, BDRip] Dub (iTunes) + Original + Sub (rus, eng)

Reply to topic
 
Author
Message

Satyr ®

Gender: Unknown

Longevity: 10 years

Posts: 14656

Reputation: 54 [+] [-]

Satyr · Post 06-Feb-2017 21:45

[Quote] 

Прибытие / Arrival«Почему они здесь?» Страна: США
Жанр: фантастика, триллер, драма
Год выпуска: 2016
Продолжительность: 01:58:29
Перевод: Профессиональный (полное дублирование) - (iTunes)
Cубтитры: Русские (форсированные, полные), Английские (полные)
Оригинальная аудиодорожка: Английский
Режиссер: Дени Вильнёв / Denis Villeneuve
В ролях: Эми Адамс (Louise Banks), Джереми Реннер (Ian Donnelly), Майкл Стулбарг (Agent Halpern), Форест Уитакер (Colonel Weber), Сангита Патель (Newscaster 1), Ци Ма (General Shang), Эбигейл Пнёвски (Hannah (8 yrs. old)), Марк О’Брайэн (Captain Marks), Рут Чианг (Chinese Scientist), Джейдин Мэлоун (Hannah (6 yr old)), Анана Ридвальд (Danish Scientist), Натали Тибо (Gala Guest)
Описание: Неожиданное появление неопознанных летающих объектов в разных точках планеты повергает мир в трепет. Намерения пришельцев не ясны - вооруженные силы всего мира приведены в полную боевую готовность, а лучшие умы человечества пытаются понять, как разговаривать с непрошенными гостями. Правительство обращается за помощью к лингвисту Луизе Бэнкс и физику Яну Доннели, чтобы предотвратить глобальную катастрофу и найти общий язык с пришельцами. Отныне судьба человечества находится в их руках.
Сэмпл: http://multi-up.com/1139318
Качество видео: BDRip
Исходник: ARRIVAL_REMUX_HDCLUB
Формат видео: AVI
Видео: 720x304 (2.37:1), 23.976 fps, XviD build 65 ~2061 kbps avg, 0.39 bit/pixel
Аудио RUS: 48 kHz, AC3 Dolby Digital, 3/2 (L,C,R,l,r) + LFE ch, ~384 kbps - (iTunes)
Аудио ENG: 48 kHz, AC3 Dolby Digital, 2/0 (L,R) ch, ~192 kbps
Формат субтитров: softsub (SRT)

Rip by Ториял для

MediaInfo

ормат : AVI
Формат/Информация : Audio Video Interleave
Профиль формата : OpenDML
Размер файла : 2,15 Гбайт
Продолжительность : 1 ч. 56 м.
Общий поток : 2644 Кбит/сек
Программа кодирования : VirtualDubMod 1.5.10.2 (build 2540/release)
Библиотека кодирования : VirtualDubMod build 2540/release
Видео
Идентификатор : 0
Формат : MPEG-4 Visual
Профиль формата : Advanced Simple@L5
Параметр BVOP формата : 1
Параметр QPel формата : Нет
Параметр GMC формата : Без точки перехода
Параметр матрицы формата : Выборочная
Идентификатор кодека : XVID
Идентификатор кодека/Подсказка : XviD
Продолжительность : 1 ч. 56 м.
Битрейт : 2050 Кбит/сек
Ширина : 720 пикселей
Высота : 304 пикселя
Соотношение сторон : 2,35:1
Частота кадров : 23,976 (24000/1001) кадра/сек
Цветовое пространство : YUV
Субдискретизация насыщенности : 4:2:0
Битовая глубина : 8 бит
Тип развёртки : Прогрессивная
Метод сжатия : С потерями
Бит/(Пиксели*Кадры) : 0.391
Размер потока : 1,67 Гбайт (78%)
Библиотека кодирования : XviD 65
Аудио #1
Идентификатор : 1
Формат : AC-3
Формат/Информация : Audio Coding 3
Расширение режима : CM (complete main)
Параметр Endianness формата : Big
Идентификатор кодека : 2000
Продолжительность : 1 ч. 56 м.
Вид битрейта : Постоянный
Битрейт : 384 Кбит/сек
Каналы : 6 каналов
Расположение каналов : Front: L C R, Side: L R, LFE
Частота : 48,0 КГц
Частота кадров : 31,250 кадров/сек (1536 spf)
Битовая глубина : 16 бит
Метод сжатия : С потерями
Размер потока : 320 Мбайт (15%)
Выравнивание : Разделение по промежуткам
Продолжительность промежутка : 42 мс. (1,00 видеокадр)
Время предзагрузки промежутка : 500 мс.
Аудио #2
Идентификатор : 2
Формат : AC-3
Формат/Информация : Audio Coding 3
Расширение режима : CM (complete main)
Параметр Endianness формата : Big
Идентификатор кодека : 2000
Продолжительность : 1 ч. 56 м.
Вид битрейта : Постоянный
Битрейт : 192 Кбит/сек
Каналы : 2 канала
Расположение каналов : Front: L R
Частота : 48,0 КГц
Частота кадров : 31,250 кадров/сек (1536 spf)
Битовая глубина : 16 бит
Метод сжатия : С потерями
Размер потока : 160 Мбайт (7%)
Выравнивание : Разделение по промежуткам
Продолжительность промежутка : 42 мс. (1,00 видеокадр)
Время предзагрузки промежутка : 500 мс.

Скриншоты

[Profile]  [PM] 
Display posts:    
Reply to topic

Current time is: 16-Dec 08:58

All times are UTC + 2



You cannot post new topics in this forum
You cannot reply to topics in this forum
You cannot edit your posts in this forum
You cannot delete your posts in this forum
You cannot vote in polls in this forum
You cannot attach files in this forum
You cannot download files in this forum