Пуэрториканцы в Париже / Puerto Ricans in Paris (Йен Эдельман / Ian Edelman) [2015, США, Комедия, BDRip] MVO (iTunes)

Reply to topic
 
Author
Message

Satyr ®

Gender: Unknown

Longevity: 10 years

Posts: 14651

Reputation: 54 [+] [-]

Satyr · Post 07-Feb-2017 10:05

[Quote] 

Пуэрториканцы в Париже / Puerto Ricans in Paris-«No Rules. No Merci»- Страна: США
Жанр: Комедия
Год выпуска: 2015
Продолжительность: 01:21:40-Перевод: Профессиональный (многоголосый закадровый) iTunes
Cубтитры: нет-Режиссер: Йен Эдельман / Ian Edelman-В ролях: Розарио Доусон, Луис Гусман, Рози Перес, Мириам Шор, Рави Патель, Элис Тальони, Полина Сингер, Эдгар Гарсиа, Джессика Бун, Даниэль Лунд-Описание: Два сыщика-пуэрториканца из полиции Нью-Йорка возглавляют полицейский департамент в Париже, чтобы разыскать украденную сумочку.- / / -Качество видео: BDRip | BDRemux 1080p |
Формат видео: AVI
Видео: 720x304 (2.35:1), 23.976 fps, XviD build 73, 2102 Kbps, 0.40 bit/pixel
Аудио: 48 kHz, AC3 Dolby Digital, 3/2 (L,C,R,l,r) + LFE ch, 384 Kbps-Релиз от: -

MediaInfo

General
Complete name : Downloads\Puerto.Ricans.in.Paris.2015.BDRip.1.42Gb.MegaPeer.avi
Format : AVI
Format/Info : Audio Video Interleave
File size : 1.42 GiB
Duration : 1h 21mn
Overall bit rate : 2 493 Kbps
Video #0
ID : 0
Format : MPEG-4 Visual
Format profile : Advanced Simple@L5
Format settings, BVOP : 1
Format settings, QPel : No
Format settings, GMC : No warppoints
Format settings, Matrix : Custom
Codec ID : XVID
Codec ID/Hint : XviD
Duration : 1h 21mn
Bit rate : 2 102 Kbps
Width : 720 pixels
Height : 304 pixels
Display aspect ratio : 2.35:1
Frame rate : 23.976 fps
Color space : YUV
Chroma subsampling : 4:2:0
Bit depth : 8 bits
Scan type : Progressive
Compression mode : Lossy
Bits/(Pixel*Frame) : 0.401
Stream size : 1.20 GiB (84%)
Writing library : XviD 73
Audio #1
ID : 1
Format : AC-3
Format/Info : Audio Coding 3
Mode extension : CM (complete main)
Format settings, Endianness : Big
Codec ID : 2000
Duration : 1h 21mn
Bit rate mode : Constant
Bit rate : 384 Kbps
Channel(s) : 6 channels
Channel positions : Front: L C R, Side: L R, LFE
Sampling rate : 48.0 KHz
Bit depth : 16 bits
Compression mode : Lossy
Stream size : 224 MiB (15%)
Alignment : Aligned on interleaves
Interleave, duration : 64 ms (1.54 video frames)
Interleave, preload duration : 192 ms
Title : iTunes

Скриншот c названием фильма

Скриншоты

[Profile]  [PM] 
Display posts:    
Reply to topic

Current time is: 15-Dec 11:46

All times are UTC + 2



You cannot post new topics in this forum
You cannot reply to topics in this forum
You cannot edit your posts in this forum
You cannot delete your posts in this forum
You cannot vote in polls in this forum
You cannot attach files in this forum
You cannot download files in this forum