План Побега / Escape Plan (Микаэль Хофстрём / Mikael Håfström) [2013, США, Боевик, триллер, детектив, HDRip] Dub

Reply to topic
 
Author
Message

Satyr ®

Gender: Unknown

Longevity: 11 years

Posts: 15401

Reputation: 55 [+] [-]

Satyr · Post 07-Feb-2017 10:05

[Quote] 

-План Побега / Escape Plan
«Из самой надежной тюрьмы в одиночку убежать невозможно»- -Страна: США
Жанр: Боевик, триллер, детектив
Год выпуска: 2013
Продолжительность: 01:55:35-Перевод: Профессиональный (дублированный) Пифагор
Cубтитры: нет
Оригинальная аудиодорожка: нет-Режиссер: Микаэль Хофстрём / Mikael Håfström-В ролях: Сильвестр Сталлоне, Арнольд Шварценеггер, Джеймс Кэвизел, Фаран Таир, Сэм Нил, Фифти Сент, Винни Джонс, Винсент Д’Онофрио, Эми Райан, Мэтт Джералд-Описание: Один из самых выдающихся мировых специалистов по системам безопасности соглашается на последнюю рисковую операцию: сбежать из суперсекретной высокотехнологичной тюрьмы, которую называют «Гробницей». Преданный Рэй Бреслин вынужден прибегнуть к помощи напарника — заключенного Эмиля Ротмайера, чтобы разработать отчаянный и практически неосуществимый план побега из самой защищенной тюрьмы в мире!- - -Качество видео: HDRip / BDRip 1080p
Формат видео: AVI-Видео: XviD build 73, 688x288 (2.40:1), 23.976 fps, ~750 kbps avg, 0.158 bit/pixel
Аудио: 48 kHz, MP3, 2/0 (L,R) ch, ~128 kbps avg-

MediaInfo

Complete name : C:\Users\1\Desktop\План побега (2013) HDRip_ivanes20031987.avi
Format : AVI
Format/Info : Audio Video Interleave
File size : 733 MiB
Duration : 1h 55mn
Overall bit rate : 887 Kbps
Writing library : VirtualDub build 35491/release
Video
ID : 0
Format : MPEG-4 Visual
Format profile : Advanced Simple@L5
Format settings, BVOP : 1
Format settings, QPel : No
Format settings, GMC : No warppoints
Format settings, Matrix : Custom
Codec ID : XVID
Codec ID/Hint : XviD
Duration : 1h 55mn
Bit rate : 750 Kbps
Width : 688 pixels
Height : 288 pixels
Display aspect ratio : 2.40:1
Frame rate : 23.976 fps
Color space : YUV
Chroma subsampling : 4:2:0
Bit depth : 8 bits
Scan type : Progressive
Compression mode : Lossy
Bits/(Pixel*Frame) : 0.158
Stream size : 620 MiB (85%)
Writing library : XviD 73
Audio
ID : 1
Format : MPEG Audio
Format version : Version 1
Format profile : Layer 3
Mode : Joint stereo
Mode extension : MS Stereo
Codec ID : 55
Codec ID/Hint : MP3
Duration : 1h 55mn
Bit rate mode : Constant
Bit rate : 128 Kbps
Channel(s) : 2 channels
Sampling rate : 48.0 KHz
Compression mode : Lossy
Stream size : 106 MiB (14%)
Alignment : Split accross interleaves
Interleave, duration : 42 ms (1.00 video frame)
Interleave, preload duratio : 500 ms
Writing library : LAME3.99.5

Скриншот c названием фильма

Скриншоты

[Profile]  [PM] 
Display posts:    
Reply to topic

Current time is: 28-Nov 09:07

All times are UTC + 2



You cannot post new topics in this forum
You cannot reply to topics in this forum
You cannot edit your posts in this forum
You cannot delete your posts in this forum
You cannot vote in polls in this forum
You cannot attach files in this forum
You cannot download files in this forum