Война / War (Филлип Дж. Этвелл / Phillip G. Atwell) [2007, США, Канада, боевик, BDRip] [Open Matte] DVO (Ren-TV) + Original

Reply to topic
 
Author
Message

Advocat ®

Gender: Unknown

Longevity: 11 years

Posts: 2910

Reputation: 0 [+] [-]

Advocat · Post 07-Feb-2017 10:05

[Quote] 

Война / Чужой среди чужих / War
Страна: США, Канада
Жанр: боевик
Год выпуска: 2007
Продолжительность: 01:42:53
Перевод: Профессиональный (двухголосый, закадровый) Ren-TV
Cубтитры: нет
Оригинальная аудиодорожка: английский
Режиссер: Филлип Дж. Этвелл / Phillip G. Atwell
В ролях: Джет Ли, Джейсон Стэтхэм, Джон Лоун, Девон Аоки, Луис Гусман, Сол Рубинек, Рё Исибаси, Санг Кенг, Мэтью Ст. Патрик, Надин Веласкес
Описание: В мире, которым правит страх, только правосудие спасает жизни. На счету агента ФБР Кроуфорда и его напарника немало обезвреженных бандитов. Но справедливость и закон оказались бессильны, когда одержимый убийца объявил им войну. С этого момента жизнь Кроуфорда превращается в бесконечную игру со смертью, захватывающую и жестокую. Игру, где жизнь не стоит ничего, а бывшие друзья становятся заклятыми врагами.
Сэмпл: http://multi-up.com/1139310
Качество видео: BDRip
Формат видео: AVI
Видео: 704x400 (1.76:1), 24.000 fps, XviD build 73 ~1634 kbps avg, 0.24 bit/pixel
Аудио 1: 48 khz, AC3, 2/0 (L,R) ch, ~192 kbps
Аудио 2: 48 khz, MP3, 2/0 (L,R) ch, ~192 kbps

Доп. информация

За видеоряд спасибо dalemake, за дорожку - Liu Jian, за сведение звука - JUSTKANT

MediaInfo

General
Complete name : D:\Война.avi
Format : AVI
Format/Info : Audio Video Interleave
File size : 1.46 GiB
Duration : 1h 42mn
Overall bit rate : 2 033 Kbps
Writing application : VirtualDubMod 1.5.10.2 (build 2540/release)
Writing library : VirtualDubMod build 2540/release
Video
ID : 0
Format : MPEG-4 Visual
Format profile : Advanced Simple@L5
Format settings, BVOP : 1
Format settings, QPel : No
Format settings, GMC : No warppoints
Format settings, Matrix : Custom
Codec ID : XVID
Codec ID/Hint : XviD
Duration : 1h 42mn
Bit rate : 1 635 Kbps
Width : 704 pixels
Height : 400 pixels
Display aspect ratio : 16:9
Frame rate : 24.000 fps
Color space : YUV
Chroma subsampling : 4:2:0
Bit depth : 8 bits
Scan type : Progressive
Compression mode : Lossy
Bits/(Pixel*Frame) : 0.242
Stream size : 1.18 GiB (80%)
Writing library : XviD 73
Audio #1
ID : 1
Format : AC-3
Format/Info : Audio Coding 3
Mode extension : CM (complete main)
Format settings, Endianness : Big
Codec ID : 2000
Duration : 1h 42mn
Bit rate mode : Constant
Bit rate : 192 Kbps
Channel(s) : 2 channels
Channel positions : Front: L R
Sampling rate : 48.0 KHz
Bit depth : 16 bits
Compression mode : Lossy
Stream size : 141 MiB (9%)
Alignment : Split accross interleaves
Interleave, duration : 42 ms (1.00 video frame)
Interleave, preload duration : 500 ms
Audio #2
ID : 2
Format : MPEG Audio
Format version : Version 1
Format profile : Layer 3
Mode : Joint stereo
Mode extension : MS Stereo
Codec ID : 55
Codec ID/Hint : MP3
Duration : 1h 42mn
Bit rate mode : Constant
Bit rate : 192 Kbps
Channel(s) : 2 channels
Sampling rate : 48.0 KHz
Compression mode : Lossy
Stream size : 141 MiB (9%)
Alignment : Aligned on interleaves
Interleave, duration : 42 ms (1.00 video frame)
Interleave, preload duration : 504 ms

Скриншоты

[Profile]  [PM] 
Display posts:    
Reply to topic

Current time is: 28-Nov 17:57

All times are UTC + 2



You cannot post new topics in this forum
You cannot reply to topics in this forum
You cannot edit your posts in this forum
You cannot delete your posts in this forum
You cannot vote in polls in this forum
You cannot attach files in this forum
You cannot download files in this forum