Голливудские копы / Hollywood Homicide (Рон Шелтон / Ron Shelton) [2003, США, боевик, триллер, комедия, криминал, BDRip-AVC] Dub + MVO + Original Eng + Sub (Rus, Eng)

Reply to topic
 
Author
Message

Wolf ®

Gender: Unknown

Longevity: 10 years

Posts: 2821

Reputation: 0 [+] [-]

Wolf · Post 07-Feb-2017 10:05

[Quote] 

Голливудские копы / Hollywood Homicide- Страна: США
Жанр: боевик, триллер, комедия, криминал
Год выпуска: 2003
Продолжительность: 01:55:56
Перевод 1: Профессиональный (дублированный)
Перевод 2: Профессиональный (многоголосый закадровый)
Cубтитры: русские, английские
Оригинальная аудиодорожка: английский
Режиссер: Рон Шелтон / Ron Shelton
В ролях: Харрисон Форд, Джош Хартнетт, Лена Олин, Брюс Гринвуд, Исайа Вашингтон, Лолита Давидович, Кит Дэвид, Master P, Глэдис Найт, Лу Даймонд Филипс, Мартин Ландау
Описание: Ветеран лос-анджелесской полиции Джо Гэвилан и его молодой напарник Кейси Колден расследуют загадочное убийство популярной рэп группы. По одной из версий за убийством стоит Сэртэйн, известный менеджер, промоутер и владелец влиятельного лейбла. Он уже давно подозревается в причастности к гибели нескольких рэпперов, желавших расторгнуть с ним контракты. Но все время на пути расследований вставал начальник службы охраны медиа магната, бывший шеф полиции Лос-Анджелеса. И лишь в этот раз ничто не остановит напарников в поисках преступников, ведь до этого у них на счету было уже несколько провальных дел…
Сэмпл: http://sendfile.su/1306154

Качество видео: BDRip-AVC (HOLLYWOOD HOMICIDE HDCLUB)
Формат видео: MKV
Видео: x264, 1128x470 (2.40:1) 23,976 fps, ~2507 kbps, 0,197 bit/pixel
Аудио 1: 48 kHz, AC3, 2/0 (L,R) ch, ~192 kbps avg | Dub
Аудио 2: 48 kHz, AC3 Dolby Digital, 3/2 (L,C,R,l,r) + LFE ch, ~448 kbps | R5
Аудио 3: 48 kHz, AC3 Dolby Digital, 3/2 (L,C,R,l,r) + LFE ch, ~448 kbps | Английский
Формат субтитров: softsub (SRT)

MediaInfo

General
Unique ID : 174171030748177275604168615996006246178 (0x83081ECFAB257F33BF9FF70BA836A722)
Format : Matroska
Format version : Version 4 / Version 2
File size : 2.91 GiB
Duration : 1h 55mn
Overall bit rate : 3 595 Kbps
Encoded date : UTC 2017-02-06 10:53:17
Writing application : mkvmerge v9.8.0 ('Kuglblids') 64bit
Writing library : libebml v1.3.4 + libmatroska v1.4.5
Video #1
ID : 1
Format : AVC
Format/Info : Advanced Video Codec
Format profile : High@L4.1
Format settings, CABAC : Yes
Format settings, ReFrames : 10 frames
Codec ID : V_MPEG4/ISO/AVC
Duration : 1h 55mn
Bit rate : 2 507 Kbps
Width : 1 128 pixels
Height : 470 pixels
Display aspect ratio : 2.40:1
Frame rate mode : Constant
Frame rate : 23.976 (24000/1001) fps
Color space : YUV
Chroma subsampling : 4:2:0
Bit depth : 8 bits
Scan type : Progressive
Bits/(Pixel*Frame) : 0.197
Stream size : 2.03 GiB (70%)
Writing library : x264 core 148 r2638 7599210
Encoding settings : cabac=1 / ref=10 / deblock=1:-3:-2 / analyse=0x3:0x133 / me=umh / subme=10 / psy=1 / psy_rd=1.00:0.00 / mixed_ref=1 / me_range=32 / chroma_me=1 / trellis=2 / 8x8dct=1 / cqm=0 / deadzone=21,11 / fast_pskip=1 / chroma_qp_offset=-2 / threads=6 / lookahead_threads=1 / sliced_threads=0 / nr=0 / decimate=1 / interlaced=0 / bluray_compat=0 / constrained_intra=0 / bframes=11 / b_pyramid=2 / b_adapt=2 / b_bias=0 / direct=1 / weightb=1 / open_gop=0 / weightp=2 / keyint=250 / keyint_min=23 / scenecut=40 / intra_refresh=0 / rc_lookahead=60 / rc=2pass / mbtree=1 / bitrate=2507 / ratetol=1.0 / qcomp=0.60 / qpmin=0 / qpmax=69 / qpstep=4 / cplxblur=20.0 / qblur=0.5 / ip_ratio=1.40 / aq=3:1.00
Language : English
Default : Yes
Forced : No
Audio #2
ID : 2
Format : AC-3
Format/Info : Audio Coding 3
Mode extension : CM (complete main)
Format settings, Endianness : Big
Codec ID : A_AC3
Duration : 1h 55mn
Bit rate mode : Constant
Bit rate : 192 Kbps
Channel(s) : 2 channels
Channel positions : Front: L R
Sampling rate : 48.0 KHz
Frame rate : 31.250 fps (1536 spf)
Compression mode : Lossy
Stream size : 159 MiB (5%)
Title : Dub
Language : Russian
Default : Yes
Forced : No
Audio #3
ID : 3
Format : AC-3
Format/Info : Audio Coding 3
Mode extension : CM (complete main)
Format settings, Endianness : Big
Codec ID : A_AC3
Duration : 1h 55mn
Bit rate mode : Constant
Bit rate : 448 Kbps
Channel(s) : 6 channels
Channel positions : Front: L C R, Side: L R, LFE
Sampling rate : 48.0 KHz
Frame rate : 31.250 fps (1536 spf)
Compression mode : Lossy
Stream size : 372 MiB (12%)
Title : R5
Language : Russian
Default : No
Forced : No
Audio #4
ID : 4
Format : AC-3
Format/Info : Audio Coding 3
Mode extension : CM (complete main)
Format settings, Endianness : Big
Codec ID : A_AC3
Duration : 1h 55mn
Bit rate mode : Constant
Bit rate : 448 Kbps
Channel(s) : 6 channels
Channel positions : Front: L C R, Side: L R, LFE
Sampling rate : 48.0 KHz
Frame rate : 31.250 fps (1536 spf)
Compression mode : Lossy
Stream size : 372 MiB (12%)
Language : English
Default : No
Forced : No
Text #5
ID : 5
Format : UTF-8
Codec ID : S_TEXT/UTF8
Codec ID/Info : UTF-8 Plain Text
Duration : 1h 50mn
Bit rate : 114 bps
Count of elements : 1473
Stream size : 92.7 KiB (0%)
Language : Russian
Default : No
Forced : No
Text #6
ID : 6
Format : UTF-8
Codec ID : S_TEXT/UTF8
Codec ID/Info : UTF-8 Plain Text
Duration : 1h 55mn
Bit rate : 73 bps
Count of elements : 2290
Stream size : 62.6 KiB (0%)
Title : SDH
Language : English
Default : No
Forced : No

лог

raw [info]: 1128x470p 1:1 @ 24000/1001 fps (cfr)
x264 [info]: using SAR=1/1
x264 [info]: using cpu capabilities: MMX2 SSE2Fast SSSE3 SSE4.2 AVX XOP FMA4 FMA3 LZCNT BMI1
x264 [info]: profile High, level 4.1
x264 [info]: frame I:1647 Avg QP:16.63 size: 89478
x264 [info]: frame P:37931 Avg QP:20.01 size: 25212
x264 [info]: frame B:127221 Avg QP:22.10 size: 8450
x264 [info]: consecutive B-frames: 3.0% 3.9% 10.1% 16.7% 16.3% 39.9% 5.7% 1.9% 1.1% 0.7% 0.4% 0.3%
x264 [info]: mb I I16..4: 3.4% 79.9% 16.7%
x264 [info]: mb P I16..4: 1.2% 11.3% 1.9% P16..4: 41.0% 21.8% 15.5% 0.6% 0.2% skip: 6.5%
x264 [info]: mb B I16..4: 0.1% 1.0% 0.2% B16..8: 44.1% 11.9% 3.0% direct: 5.0% skip:34.8% L0:45.5% L1:45.0% BI: 9.6%
x264 [info]: 8x8 transform intra:79.1% inter:66.4%
x264 [info]: coded y,uvDC,uvAC intra: 88.0% 77.6% 46.0% inter: 28.2% 18.4% 2.8%
x264 [info]: i16 v,h,dc,p: 23% 26% 5% 46%
x264 [info]: i8 v,h,dc,ddl,ddr,vr,hd,vl,hu: 14% 12% 5% 9% 13% 13% 13% 10% 12%
x264 [info]: i4 v,h,dc,ddl,ddr,vr,hd,vl,hu: 13% 13% 3% 8% 14% 13% 14% 10% 12%
x264 [info]: i8c dc,h,v,p: 34% 29% 20% 17%
x264 [info]: Weighted P-Frames: Y:2.9% UV:1.0%
x264 [info]: ref P L0: 44.6% 13.3% 17.6% 6.3% 5.6% 3.6% 3.5% 1.8% 1.8% 1.5% 0.2% 0.0%
x264 [info]: ref B L0: 68.3% 13.3% 7.0% 3.7% 2.7% 2.2% 1.8% 0.7% 0.3%
x264 [info]: ref B L1: 90.9% 9.1%
x264 [info]: kb/s:2505.37
x264 [total]: encoded 166799 frames, 8.49 fps, 2505.38 kb/s

Скриншоты


[Profile]  [PM] 
Display posts:    
Reply to topic

Current time is: 16-Dec 09:14

All times are UTC + 2



You cannot post new topics in this forum
You cannot reply to topics in this forum
You cannot edit your posts in this forum
You cannot delete your posts in this forum
You cannot vote in polls in this forum
You cannot attach files in this forum
You cannot download files in this forum