В мае делай то, что тебе нравится / En mai fais ce qu\'il te plait (Кристиан Карион / Christian Carion) [2015, Франция, драма, военный, DVDRip] Sub Rus + Original Fre

Reply to topic
 
Author
Message

Satyr ®

Gender: Unknown

Longevity: 10 years

Posts: 14656

Reputation: 54 [+] [-]

Satyr · Post 08-Feb-2017 10:35

[Quote] 

В мае делай то, что тебе нравится / En mai fais ce qu'il te plaît
Страна: Франция
Жанр: драма, военный
Год выпуска: 2015
Продолжительность: 01:53:06
Перевод: Субтитры
Cубтитры: русские - enoeno
Оригинальная аудиодорожка: французский, английский, немецкий
Режиссер: Кристиан Карион / Christian Carion
В ролях: Август Диль, Жёшио Марлон, Оливье Гурме, Матильда Сенье, Алис Исааз, Мэттью Риз, Томас Шмаузер, Лоран Жерра, Жак Боннаффе, Франсуа Годар
Описание: 10 мая 1940 года немецкие войска начали наступление во Франции. Жители поселка на севере страны покидают свои дома и отправляются в эвакуацию. Они берут с собой немецкого мальчика, чей отец, противник нацистского режима, находится в заключении во французской тюрьме. Выпущенный на волю во время творившегося хаоса, тот отправляется на поиски своего сына вместе со случайным попутчиком - офицером - шотландцем...
Доп. информация: Рип из сети Интернет.
Сэмпл: http://sendfile.su/1305676
Качество видео: DVDRip
Формат видео: AVI
Видео: XVID, 1.37 Gb, 720х300 pixels, 23,976 fps, 1600 Kbps
Аудио: MP3, 128 Kbps, 48.0 KHz, 2 channels
Формат субтитров: softsub (SRT)

Образец субтитров

20
00:05:58,291 --> 00:06:00,877
Не складывай всё в одном
и том же направлении.
21
00:06:01,336 --> 00:06:03,129
Они упадут на первом повороте.
22
00:06:03,338 --> 00:06:04,839
Клади по три снопа.
23
00:06:06,257 --> 00:06:09,010
- Разве так не делают в Бельгии?
- Да, но это не...
24
00:06:10,261 --> 00:06:11,721
...по три снопа.
25
00:06:12,472 --> 00:06:14,265
По три снопа по-другому?
26
00:06:16,684 --> 00:06:18,103
Да, но их класть лучше так.
27
00:06:27,362 --> 00:06:28,947
Пора, я голодный.
28
00:06:29,739 --> 00:06:32,033
Будем поворачивать, смотри.
29
00:06:32,951 --> 00:06:34,244
Пошел, Гитлер!
30
00:06:35,161 --> 00:06:36,179
Идем!
31
00:06:36,955 --> 00:06:37,956
За мной.
32
00:06:39,958 --> 00:06:43,002
Идем, Жозефина!
Надо поесть, уже пора.
33
00:06:51,044 --> 00:06:52,050
Смотрите.
34
00:06:56,349 --> 00:06:58,309
Надо смотреть за лошадьми.
35
00:06:59,894 --> 00:07:01,729
В жару они чувствуют себя плохо.
36
00:07:02,689 --> 00:07:04,482
И у одного очень плохой норов.
37
00:07:05,108 --> 00:07:06,568
Из-за этого его зовут "Гитлер".
38
00:07:07,652 --> 00:07:09,154
Другой - Шарло.
39
00:07:10,697 --> 00:07:13,408
- Спасибо, я предпочитаю воду.
- На самом деле?
40
00:07:21,332 --> 00:07:24,335
Говорят, что пиво успокаивает,
а меня - наоборот.

MediaInfo

Общее
Полное имя : D:\Films \En.Mai.Fais.Ce.Qu.il.Te.Plait.2015\En.Mai.Fais.Ce.Qu.il.Te.Plait.2015.avi
Формат : AVI
Формат/Информация : Audio Video Interleave
Размер файла : 1,37 Гбайт
Продолжительность : 1 ч. 53 м.
Общий поток : 1738 Кбит/сек
Библиотека кодирования : VirtualDub Fr build 32618/release
Видео
Идентификатор : 0
Формат : MPEG-4 Visual
Профиль формата : Advanced Simple@L5
Параметр BVOP формата : 2
Параметр QPel формата : Нет
Параметр GMC формата : Без точки перехода
Параметр матрицы формата : Default (H.263)
Режим смешивания : Сжатый битовый поток
Идентификатор кодека : XVID
Идентификатор кодека/Подсказка : XviD
Продолжительность : 1 ч. 53 м.
Битрейт : 1600 Кбит/сек
Ширина : 720 пикселей
Высота : 300 пикселей
Соотношение сторон : 2,40:1
Частота кадров : 23,976 кадра/сек
Цветовое пространство : YUV
Субдискретизация насыщенности : 4:2:0
Битовая глубина : 8 бит
Тип развёртки : Прогрессивная
Метод сжатия : С потерями
Бит/(Пиксели*Кадры) : 0.309
Размер потока : 1,26 Гбайт (92%)
Библиотека кодирования : XviD 64
Аудио
Идентификатор : 1
Формат : MPEG Audio
Версия формата : Version 1
Профиль формата : Layer 3
Режим : Joint stereo
Идентификатор кодека : 55
Идентификатор кодека/Подсказка : MP3
Продолжительность : 1 ч. 53 м.
Вид битрейта : Постоянный
Битрейт : 128 Кбит/сек
Каналы : 2 канала
Частота : 48,0 КГц
Метод сжатия : С потерями
Размер потока : 104 Мбайт (7%)
Выравнивание : Разделение по промежуткам
Продолжительность промежутка : 42 мс. (1,00 видеокадр)
Время предзагрузки промежутка : 500 мс.
Библиотека кодирования : LAME3.99.5

Скриншот c названием фильма

Скриншоты





[Profile]  [PM] 
Display posts:    
Reply to topic

Current time is: 16-Dec 09:13

All times are UTC + 2



You cannot post new topics in this forum
You cannot reply to topics in this forum
You cannot edit your posts in this forum
You cannot delete your posts in this forum
You cannot vote in polls in this forum
You cannot attach files in this forum
You cannot download files in this forum