Браво! / Aferim! (Раду Жуде / Radu Jude) [2015, Румыния, Чехия, Болгария, история, приключения, комедия, HDRip-AVC] VO (Zamez)

Reply to topic
 
Author
Message

Satyr ®

Gender: Unknown

Longevity: 10 years

Posts: 15281

Reputation: 54 [+] [-]

Satyr · Post 08-Feb-2017 10:35

[Quote] 

Браво! / Aferim!
Страна: Румыния, Чехия, Болгария
Жанр: история, приключения, комедия
Год выпуска: 2015
Продолжительность: 01:45:25-Перевод: Одноголосый закадровый Zamez
Cубтитры: нет
Оригинальная аудиодорожка: нет-Режиссер: Раду Жуде / Radu Jude-В ролях: Теодор Корбан, Михай Комэною, Кузин Тома, Михаэла Сирбу-Описание: Валахия, 1835 год. Два наездника, жандарм и его сын, блуждают в поисках беглого цыгана, которого подозревают в порочной связи с женой боярина. Кажется, что их задание не увенчается успехом и нужно оно лишь для того, чтобы в афористических разговорах, которые ведет жандарм с каждым встречным, выявить все виды ксенофобии, ищущие, как и сегодня, оправдание в библейских цитатах. Турки и русские, христиане и евреи, венгры и румыны – тут достается всем. Но помимо филигранных остроумных диалогов, взятых во многом из реальных документов и фольклора, у Раду Жуде под финал приготовлено кое-что еще – неожиданное и безжалостное. Фильм «Браво!» поначалу кажется совершенно не похожим на канонические примеры «румынской волны». Мимикрирующий под черно-белый вестерн, он обращается к далекому прошлому, куда, как правило, румыны не забредают. И все же в хитрой структуре фильма, которая окончательно вырисовывается ближе к концу, угадываются лучшие традиции Мунджиу, Порумбою, Пую и самого Жуде. «Браво!» был предложен Румынией на премию «Оскар» в номинации «лучший фильм на иностранном языке».-Доп. информация: -Сэмпл: http://multi-up.com/1139460-Качество видео: HDRip-AVC (Исходник: Aferim 2015 1080p BluRay x264-LAP)
Формат видео: MKV-Видео: AVC, 1024х430, 2.40:1, 24.000 fps, 2 145 Kbps
Аудио: AC3, 48.0 KHz, 384 Kbps, 6 channels

MediaInfo

General
Unique ID : 30491062098712937139981911931257391279 (0x16F05D6D92CDC5DEE8D39B7CCA3C88AF)
Complete name : Aferim.2015.HDRip.RU.mkv
Format : Matroska
Format version : Version 4 / Version 2
File size : 1.86 GiB
Duration : 1 h 45 min
Overall bit rate : 2 531 kb/s
Encoded date : UTC 2016-05-28 21:44:40
Writing application : mkvmerge v8.8.0 ('Wind at my back') 64bit
Writing library : libebml v1.3.3 + libmatroska v1.4.4
Video
ID : 1
Format : AVC
Format/Info : Advanced Video Codec
Format profile : High@L4
Format settings, CABAC : Yes
Format settings, ReFrames : 12 frames
Codec ID : V_MPEG4/ISO/AVC
Duration : 1 h 45 min
Bit rate : 2 145 kb/s
Width : 1 024 pixels
Height : 430 pixels
Display aspect ratio : 2.40:1
Frame rate mode : Constant
Frame rate : 24.000 FPS
Color space : YUV
Chroma subsampling : 4:2:0
Bit depth : 8 bits
Scan type : Progressive
Bits/(Pixel*Frame) : 0.203
Stream size : 1.58 GiB (85%)
Writing library : x264 core 142 r2479 dd79a61
Encoding settings : cabac=1 / ref=12 / deblock=1:-3:-3 / analyse=0x3:0x133 / me=umh / subme=9 / psy=1 / psy_rd=1.00:0.00 / mixed_ref=1 / me_range=32 / chroma_me=1 / trellis=2 / 8x8dct=1 / cqm=0 / deadzone=21,11 / fast_pskip=0 / chroma_qp_offset=-2 / threads=18 / lookahead_threads=2 / sliced_threads=0 / nr=0 / decimate=1 / interlaced=0 / bluray_compat=0 / constrained_intra=0 / bframes=6 / b_pyramid=2 / b_adapt=2 / b_bias=0 / direct=3 / weightb=1 / open_gop=0 / weightp=2 / keyint=240 / keyint_min=24 / scenecut=40 / intra_refresh=0 / rc_lookahead=100 / rc=2pass / mbtree=1 / bitrate=2145 / ratetol=1.0 / qcomp=0.60 / qpmin=0 / qpmax=69 / qpstep=4 / cplxblur=20.0 / qblur=0.5 / vbv_maxrate=25000 / vbv_bufsize=31250 / nal_hrd=none / filler=0 / ip_ratio=1.40 / aq=1:1.00
Default : Yes
Forced : No
Color range : Limited
Color primaries : BT.709
Transfer characteristics : BT.709
Matrix coefficients : BT.709
Audio
ID : 2
Format : AC-3
Format/Info : Audio Coding 3
Mode extension : CM (complete main)
Format settings, Endianness : Big
Codec ID : A_AC3
Duration : 1 h 45 min
Bit rate mode : Constant
Bit rate : 384 kb/s
Channel(s) : 6 channels
Channel positions : Front: L C R, Side: L R, LFE
Sampling rate : 48.0 kHz
Frame rate : 31.250 FPS (1536 spf)
Compression mode : Lossy
Delay relative to video : -83 ms
Stream size : 290 MiB (15%)
Language : Russian
Default : Yes
Forced : Yes
Menu
00:00:00.000 : :Chapter 1
00:06:22.666 : :Chapter 2
00:16:22.166 : :Chapter 3
00:25:07.083 : :Chapter 4
00:31:00.375 : :Chapter 5
00:42:57.666 : :Chapter 6
00:52:11.375 : :Chapter 7
00:59:41.625 : :Chapter 8
01:13:58.333 : :Chapter 9
01:21:46.750 : :Chapter 10
01:27:42.875 : :Chapter 11
01:39:33.833 : :Chapter 12

Скриншот c названием фильма

Скриншоты

[Profile]  [PM] 
Display posts:    
Reply to topic

Current time is: 23-Jan 15:37

All times are UTC + 2



You cannot post new topics in this forum
You cannot reply to topics in this forum
You cannot edit your posts in this forum
You cannot delete your posts in this forum
You cannot vote in polls in this forum
You cannot attach files in this forum
You cannot download files in this forum