Приглашение / The Invitation (Карин Кусама / Karyn Kusama) [2015, США, триллер, DVDRip] VO (Олег Воротилин) + Original Eng

Reply to topic
 
Author
Message

Satyr ®

Gender: Unknown

Longevity: 10 years

Posts: 15303

Reputation: 54 [+] [-]

Satyr · Post 08-Feb-2017 10:35

[Quote] 

Приглашение / The Invitation
Страна: США
Жанр: триллер
Год выпуска: 2015
Продолжительность: 01:40:32
Перевод: Одноголосый закадровый Олег Воротилин
Cубтитры: нет
Оригинальная аудиодорожка: английский
Режиссер: Карин Кусама / Karyn Kusama
В ролях: Логан Маршалл-Грин, Эмаяци Коринеальди, Эйден Лавкамп, Мишель Крусик, Майк Дойл, Хорди Виласусо, Джей Ларсон, Марайа Делфино, Тэмми Бланчард, Михил Хаушман
Описание: Уилл (Логан Маршалл-Грин) получает приглашение на званый ужин в доме своей бывшей жены Иден (Тэмми Бланчард), которую он не видел с тех пор, как два года назад в их семье произошла трагедия и брак распался. Несмотря на тяжёлые воспоминания, он соглашается, но вместо расслабленной встречи старых друзей его ждёт вечер напряжения и паранойи. С первых минут Уилла не покидает чувство, что что-то здесь не так: все двери заперты, на окнах решётки, Иден и её новый партнёр Дэйвид (Михиль Хёйсман) ведут себя подозрительно дружелюбно и внезапно появлется пара новых друзей Иден, которые также вызывают немалый дискомфорт. Правда ли здесь происходит что-то неладное, или Уилл просто не может оправиться от собственных душевных травм и видит врагов во всех вокруг?
«Приглашение» – это отличный образец классического камерного триллера в духе Альфреда Хичкока и Романа Полански, где уверенным нельзя быть ни в чём и за масками доброты и невинности могут скрываться демоны. С первых кадров режиссёр Кэрин Кусама создаёт напряжение, непрерывно нарастающее до самого финального кадра, который остаётся в памяти надолго. Как и лучшие примеры своего жанра, «Приглашение» – это история о том, что самые страшные чудовища живут внутри нас самих, и чем тише омут, тем больше в нём чертей.
Сэмпл: https://yadi.sk/i/j19_M_753DMVDj
Качество видео: DVDRip
Формат видео: AVI
Видео: XviD, 720x304, 23.976 fps, 8 bits
Аудио: MP3, 192 Kbps, 48 KHz, 2 channels

MediaInfo

General
Complete name : G:\Видео\Приглашение\the invitation (2015) [bdrip, eng].avi
Format : AVI
Format/Info : Audio Video Interleave
File size : 1.20 GiB
Duration : 1h 40mn
Overall bit rate : 1 702 Kbps
Writing library : VirtualDub build 35491/release
Video
ID : 0
Format : MPEG-4 Visual
Format profile : Advanced Simple@L5
Format settings, BVOP : 2
Format settings, QPel : No
Format settings, GMC : No warppoints
Format settings, Matrix : Default (H.263)
Muxing mode : Packed bitstream
Codec ID : XVID
Codec ID/Hint : XviD
Duration : 1h 40mn
Bit rate : 1 501 Kbps
Width : 720 pixels
Height : 304 pixels
Display aspect ratio : 2.35:1
Frame rate : 23.976 fps
Color space : YUV
Chroma subsampling : 4:2:0
Bit depth : 8 bits
Scan type : Progressive
Compression mode : Lossy
Bits/(Pixel*Frame) : 0.286
Stream size : 1.05 GiB (88%)
Writing library : XviD 66
Audio
ID : 1
Format : MPEG Audio
Format version : Version 1
Format profile : Layer 3
Mode : Joint stereo
Codec ID : 55
Codec ID/Hint : MP3
Duration : 1h 40mn
Bit rate mode : Constant
Bit rate : 192 Kbps
Channel(s) : 2 channels
Sampling rate : 48.0 KHz
Compression mode : Lossy
Stream size : 138 MiB (11%)
Alignment : Aligned on interleaves
Interleave, duration : 42 ms (1.00 video frame)
Interleave, preload duration : 504 ms

Скриншот c названием фильма

Скриншоты




Видео ряд взят отсюда:
[Profile]  [PM] 
Display posts:    
Reply to topic

Current time is: 25-Jan 16:26

All times are UTC + 2



You cannot post new topics in this forum
You cannot reply to topics in this forum
You cannot edit your posts in this forum
You cannot delete your posts in this forum
You cannot vote in polls in this forum
You cannot attach files in this forum
You cannot download files in this forum