Любовный переплет / The Oranges (Джулиан Фарино / Julian Farino) [2011, США, мелодрама, комедия, BDRip-AVC] Dub + Original Eng + Sub (Rus, Eng)

Reply to topic
 
Author
Message

Satyr ®

Gender: Unknown

Longevity: 10 years

Posts: 14656

Reputation: 54 [+] [-]

Satyr · Post 08-Feb-2017 10:35

[Quote] 

Любовный переплет / The Oranges- Страна: США
Жанр: мелодрама, комедия
Год выпуска: 2011
Продолжительность: 01:30:36
Перевод: Профессиональный (дублированный)
Cубтитры: русские, английские
Оригинальная аудиодорожка: английский
Режиссер: Джулиан Фарино / Julian Farino
В ролях: Хью Лори, Кэтрин Кинер, Оливер Плэтт, Эллисон Джэнни, Алиа Шокат, Адам Броди, Лейтон Мистер, Бойд Холбрук, Тим Гини, Лукас Папаэлиас, Ая Кэш
Описание: Семьи Острофф и Уоллинг дружат между собой и живут по соседству, на Орандж Драйв, как раз напротив. Дочь-транжирка, Нина Острофф, возвращается домой на День Благодарения, после пятилетнего отсутствия, недавно порвав с женихом. Вместо того, чтобы заинтересоваться успешным сыном своих соседей, Тоби Уоллингом, что устроило бы обе семьи, она обращает внимание на его отца и лучшего друга своих родителей, Дэвида Уоллинга. Когда романтические отношения между Ниной и Дэвидом становится невозможно игнорировать, жизнь обеих семей приходит в полный беспорядок.
Сэмпл: http://sendfile.su/1306415

Качество видео: BDRip-AVC (Любовный переплет 2011 Blu-ray Disc 1080p)
Формат видео: MKV
Видео: x264, 1152x648 (16:9) 23.976 fps, ~2348 kbps, 0,131 bit/pixel
Аудио 1: 48 kHz, AC3 Dolby Digital, 3/2 (L,C,R,l,r) + LFE ch, ~448 kbps [русский]
Аудио 2: 48 kHz, AC3 Dolby Digital, 3/2 (L,C,R,l,r) + LFE ch, ~448 kbps [английский]
Формат субтитров: softsub (SRT)

MediaInfo

General
Unique ID : 217969388933784555180612718747728027346 (0xA3FB60976FB90A499B27FCE958BD1ED2)
Format : Matroska
Format version : Version 4 / Version 2
File size : 2.05 GiB
Duration : 1h 30mn
Overall bit rate : 3 245 Kbps
Encoded date : UTC 2017-02-07 09:04:34
Writing application : mkvmerge v9.8.0 ('Kuglblids') 64bit
Writing library : libebml v1.3.4 + libmatroska v1.4.5
Video #1
ID : 1
Format : AVC
Format/Info : Advanced Video Codec
Format profile : High@L4.1
Format settings, CABAC : Yes
Format settings, ReFrames : 9 frames
Codec ID : V_MPEG4/ISO/AVC
Duration : 1h 30mn
Bit rate : 2 348 Kbps
Width : 1 152 pixels
Height : 648 pixels
Display aspect ratio : 16:9
Frame rate mode : Constant
Frame rate : 23.976 (24000/1001) fps
Color space : YUV
Chroma subsampling : 4:2:0
Bit depth : 8 bits
Scan type : Progressive
Bits/(Pixel*Frame) : 0.131
Stream size : 1.48 GiB (72%)
Writing library : x264 core 148 r2638 7599210
Encoding settings : cabac=1 / ref=9 / deblock=1:-3:-2 / analyse=0x3:0x133 / me=umh / subme=10 / psy=1 / psy_rd=1.00:0.00 / mixed_ref=1 / me_range=32 / chroma_me=1 / trellis=2 / 8x8dct=1 / cqm=0 / deadzone=21,11 / fast_pskip=1 / chroma_qp_offset=-2 / threads=6 / lookahead_threads=1 / sliced_threads=0 / nr=0 / decimate=1 / interlaced=0 / bluray_compat=0 / constrained_intra=0 / bframes=10 / b_pyramid=2 / b_adapt=2 / b_bias=0 / direct=1 / weightb=1 / open_gop=0 / weightp=2 / keyint=250 / keyint_min=23 / scenecut=40 / intra_refresh=0 / rc_lookahead=60 / rc=2pass / mbtree=1 / bitrate=2348 / ratetol=1.0 / qcomp=0.60 / qpmin=0 / qpmax=69 / qpstep=4 / cplxblur=20.0 / qblur=0.5 / ip_ratio=1.40 / aq=3:1.00
Language : English
Default : Yes
Forced : No
Audio #2
ID : 2
Format : AC-3
Format/Info : Audio Coding 3
Mode extension : CM (complete main)
Format settings, Endianness : Big
Codec ID : A_AC3
Duration : 1h 30mn
Bit rate mode : Constant
Bit rate : 448 Kbps
Channel(s) : 6 channels
Channel positions : Front: L C R, Side: L R, LFE
Sampling rate : 48.0 KHz
Frame rate : 31.250 fps (1536 spf)
Compression mode : Lossy
Stream size : 290 MiB (14%)
Language : Russian
Default : Yes
Forced : No
Audio #3
ID : 3
Format : AC-3
Format/Info : Audio Coding 3
Mode extension : CM (complete main)
Format settings, Endianness : Big
Codec ID : A_AC3
Duration : 1h 30mn
Bit rate mode : Constant
Bit rate : 448 Kbps
Channel(s) : 6 channels
Channel positions : Front: L C R, Side: L R, LFE
Sampling rate : 48.0 KHz
Frame rate : 31.250 fps (1536 spf)
Compression mode : Lossy
Stream size : 290 MiB (14%)
Language : English
Default : No
Forced : No
Text #4
ID : 4
Format : UTF-8
Codec ID : S_TEXT/UTF8
Codec ID/Info : UTF-8 Plain Text
Duration : 1h 25mn
Bit rate : 106 bps
Count of elements : 1230
Stream size : 66.7 KiB (0%)
Title : R5
Language : Russian
Default : No
Forced : No
Text #5
ID : 5
Format : UTF-8
Codec ID : S_TEXT/UTF8
Codec ID/Info : UTF-8 Plain Text
Duration : 1h 27mn
Bit rate : 69 bps
Count of elements : 1431
Stream size : 44.7 KiB (0%)
Language : English
Default : No
Forced : No

лог

raw [info]: 1152x648p 1:1 @ 24000/1001 fps (cfr)
x264 [info]: using SAR=1/1
x264 [info]: using cpu capabilities: MMX2 SSE2Fast SSSE3 SSE4.2 AVX XOP FMA4 FMA3 LZCNT BMI1
x264 [info]: profile High, level 4.1
x264 [info]: frame I:1199 Avg QP:14.05 size:109043
x264 [info]: frame P:32520 Avg QP:17.73 size: 27252
x264 [info]: frame B:96617 Avg QP:21.22 size: 5975
x264 [info]: consecutive B-frames: 6.5% 3.6% 10.0% 12.3% 10.0% 47.3% 4.2% 1.2% 2.8% 0.4% 1.6%
x264 [info]: mb I I16..4: 8.2% 68.7% 23.1%
x264 [info]: mb P I16..4: 1.2% 6.7% 1.0% P16..4: 38.8% 18.2% 13.7% 0.7% 0.2% skip:19.4%
x264 [info]: mb B I16..4: 0.1% 0.5% 0.1% B16..8: 36.7% 7.2% 1.7% direct: 2.9% skip:50.7% L0:43.3% L1:45.8% BI:10.9%
x264 [info]: 8x8 transform intra:74.0% inter:62.4%
x264 [info]: coded y,uvDC,uvAC intra: 78.1% 75.3% 48.3% inter: 14.2% 11.0% 2.2%
x264 [info]: i16 v,h,dc,p: 41% 15% 6% 39%
x264 [info]: i8 v,h,dc,ddl,ddr,vr,hd,vl,hu: 17% 10% 7% 8% 11% 13% 11% 12% 11%
x264 [info]: i4 v,h,dc,ddl,ddr,vr,hd,vl,hu: 15% 10% 5% 9% 14% 14% 12% 11% 11%
x264 [info]: i8c dc,h,v,p: 35% 24% 24% 17%
x264 [info]: Weighted P-Frames: Y:1.4% UV:0.9%
x264 [info]: ref P L0: 49.4% 10.2% 15.7% 6.5% 5.4% 4.1% 3.5% 2.1% 2.4% 0.8% 0.0%
x264 [info]: ref B L0: 73.0% 12.0% 6.3% 3.0% 2.3% 1.9% 1.1% 0.4%
x264 [info]: ref B L1: 92.2% 7.8%
x264 [info]: kb/s:2346.24
x264 [total]: encoded 130336 frames, 8.91 fps, 2346.24 kb/s

Скриншоты


[Profile]  [PM] 
Display posts:    
Reply to topic

Current time is: 16-Dec 09:46

All times are UTC + 2



You cannot post new topics in this forum
You cannot reply to topics in this forum
You cannot edit your posts in this forum
You cannot delete your posts in this forum
You cannot vote in polls in this forum
You cannot attach files in this forum
You cannot download files in this forum