Ной / Noah (Даррен Аронофски / Darren Aronofsky) [2014, США, драма, приключения, фэнтези, WEB-DLRip] [Open Matte / Локализованный видеоряд] Dub

Reply to topic
 
Author
Message

Satyr ®

Gender: Unknown

Longevity: 10 years

Posts: 14656

Reputation: 54 [+] [-]

Satyr · Post 08-Feb-2017 10:35

[Quote] 

Ной / Noah- Год выпуска: 2014
Страна: США / Paramount Pictures
Жанр: драма, приключения, фэнтези
Продолжительность: 02:18:15
Перевод: Профессиональный (дублированный) BD CEE
Субтитры: нет-Режиссер: Даррен Аронофски / Darren Aronofsky-В ролях: Рассел Кроу, Дженнифер Коннелли, Рэй Уинстон, Энтони Хопкинс, Эмма Уотсон, Логан Лерман, Дуглас Бут, Ник Нолти, Марк Марголис, Кевин Дюран.-Описание: Ной — самый обыкновенный человек, проживающий вместе с супругой и детьми в небольшом доме. В последнее время ему постоянно снится один и тот же сон, как огромный поток воды накрывает всю Землю, унося с собой все живое. Вскоре он понимает, что этот сон является своего рода предупреждением о приближающейся катастрофе и пытается донести правителю о приближающейся беде, но тот не воспринимает его слова всерьез. Тогда Ной решает своими силами построить ковчег, который поможет ему и его семье спастись. На помощь к нему приходят несколько единомышленников, вместе с которыми он приступает к постройке огромного судна. Времени остается очень мало, а завершить строительство оказывается очень не просто, тем более после того, как появляются люди, которые хотят помешать Ною.-Рейтинг
kinopoisk.ru 6.679 (92 639)
imdb.com 5.80 (206 315)
-Качество видео: WEB-DLRip (исходник: Noah (2014) WEB-DL 1080p [Open Matte] -BLUEBIRD)
Формат видео: AVI | Sample
Видео: 720x400 (1.80:1), 23.976 fps, XviD build 73 ~1801 kbps avg, 0.26 bit/pixel
Аудио: 48 kHz, AC3 Dolby Digital, 3/2 (L,C,R,l,r) + LFE ch, ~448.00 kbps avg | RUS

Инфо

Формат : AVI
Формат/Информация : Audio Video Interleave
Профиль формата : OpenDML
Размер файла : 2,18 Гбайт
Продолжительность : 2 ч. 18 м.
Общий поток : 2260 Кбит/сек
Название фильма : Ной / Noah (2014) Open Matte
Программа кодирования : VirtualDubMod 1.5.10.2 (build 2540/release)
Библиотека кодирования : VirtualDubMod build 2540/release
Примечание : WEB-DLRip by Seven
Видео
Идентификатор : 0
Формат : MPEG-4 Visual
Профиль формата : Advanced Simple@L5
Параметр BVOP формата : 1
Параметр QPel формата : Нет
Параметр GMC формата : Без точки перехода
Параметр матрицы формата : Выборочная
Идентификатор кодека : XVID
Идентификатор кодека/Подсказка : XviD
Продолжительность : 2 ч. 18 м.
Битрейт : 1801 Кбит/сек
Ширина : 720 пикселей
Высота : 400 пикселей
Соотношение сторон : 16:9
Частота кадров : 23,976 (23976/1000) кадра/сек
Цветовое пространство : YUV
Субдискретизация насыщенности : 4:2:0
Битовая глубина : 8 бит
Тип развёртки : Прогрессивная
Метод сжатия : С потерями
Бит/(Пиксели*Кадры) : 0.261
Размер потока : 1,74 Гбайт (80%)
Библиотека кодирования : XviD 73
Аудио
Идентификатор : 1
Формат : AC-3
Формат/Информация : Audio Coding 3
Расширение режима : CM (complete main)
Параметр Endianness формата : Big
Идентификатор кодека : 2000
Продолжительность : 2 ч. 17 м.
Вид битрейта : Постоянный
Битрейт : 448 Кбит/сек
Каналы : 6 каналов
Расположение каналов : Front: L C R, Side: L R, LFE
Частота : 48,0 КГц
Частота кадров : 31,250 кадров/сек (1536 spf)
Метод сжатия : С потерями
Размер потока : 442 Мбайт (20%)
Выравнивание : Разделение по промежуткам
Продолжительность промежутка : 42 мс. (1,00 видеокадр)
Время предзагрузки промежутка : 500 мс.

Исходник

Исходник с онлайн кинотеатра.
Видео ряд локализован.
Open Matte версия фильма, имеет большее наполнение кадра со всех сторон, приимущественно по бокам, по сравнению с блюрэй.
Blu-ray vs WEB-DL



Скриншоты

[Profile]  [PM] 
Display posts:    
Reply to topic

Current time is: 16-Dec 09:46

All times are UTC + 2



You cannot post new topics in this forum
You cannot reply to topics in this forum
You cannot edit your posts in this forum
You cannot delete your posts in this forum
You cannot vote in polls in this forum
You cannot attach files in this forum
You cannot download files in this forum