Бриджит Джонс 3 / Bridget Jones\'s Baby (Шэрон Магуайр / Sharon Maguire) [2016, Ирландия, Великобритания, Франция, США, мелодрама, комедия, BDRip-AVC] Dub + Sub (rus)

Reply to topic
 
Author
Message

Satyr ®

Online

Gender: Unknown

Longevity: 10 years

Posts: 14643

Reputation: 54 [+] [-]

Satyr · Post 08-Feb-2017 10:35

[Quote] 

Бриджит Джонс 3
Bridget Jones's Baby
«Её ждут большие перемены»

Страна: Ирландия, Великобритания, Франция, США
Жанр: мелодрама, комедия
Год выпуска: 2016
Продолжительность: 02:02:38
Перевод: Профессиональный (полное дублирование) [Blu-ray CEE]
Субтитры: русские (форсированные)
Оригинальная аудиодорожка: нет
Режиссер: Шэрон Магуайр / Sharon Maguire
В ролях: Рене Зеллвегер, Колин Фёрт, Патрик Демпси, Джемма Джонс, Джим Бродбент, Сэлли Филлипс, Джулиан Райнд-Татт, Эмма Томпсон, Ширли Хендерсон, Бен Уиллбонд, Пол Бенталл, Агни Скотт
Описание:
Казалось бы, и карьера - в гору, и квартира - в центре Лондона, но она не была бы Бриджит Джонс, если бы не ее способность оказываться не в то время, не в том месте, не с тем мужчиной. И теперь она понятия не имеет, кто отец ее будущего ребенка: обаятельный миллиардер или известный адвокат. Одним словом, Бриджит Джонс в очень интересном положении.


Автор рипа: stalkerok
Сэмпл
Качество видео: BDRip-AVC [kinozal / Blu-ray Remux / 1080p]
Формат видео: MKV
Видео: 1316 Кбит/сек, 922x386 (2.40:1), 23,976 кадр/сек, AVC
Аудио: русский, 384 Кбит/сек, 48 КГц, 16 бит, 5.1, AC3
Навигация по главам: есть

x264/MediaInfo

x264 [info]: frame I:2007 Avg QP:15.67 size: 56949
x264 [info]: frame P:38517 Avg QP:19.51 size: 14890
x264 [info]: frame B:135910 Avg QP:21.66 size: 3845
Общее
Уникальный идентификатор : 179874220462979588305823557695718844906 (0x875283C615E9CD159001482E8A0069EA)
Полное имя : M:\!!!!!!!!!!!!!!!!!!!\Bridget Jones's Baby (2016)\Bridget.Jones's.Baby.2016.BDRip-AVC.Dub.1.45Gb.stalkerok.new-team.mkv
Формат : Matroska
Версия формата : Version 4 / Version 2
Размер файла : 1,46 Гбайт
Продолжительность : 2 ч. 2 м.
Общий поток : 1702 Кбит/сек
Название фильма : Bridget Jones's Baby (2016) (Rip by stalkerok)
Дата кодирования : UTC 2017-02-07 10:20:07
Программа кодирования : mkvmerge v8.6.1 ('Flying') 64bit
Библиотека кодирования : libebml v1.3.3 + libmatroska v1.4.4
Видео
Идентификатор : 1
Формат : AVC
Формат/Информация : Advanced Video Codec
Профиль формата : High@L4.1
Параметр CABAC формата : Да
Параметр ReFrames формата : 11 кадров
Идентификатор кодека : V_MPEG4/ISO/AVC
Продолжительность : 2 ч. 2 м.
Битрейт : 1316 Кбит/сек
Ширина : 922 пикселя
Высота : 386 пикселей
Соотношение сторон : 2,40:1
Режим частоты кадров : Постоянный
Частота кадров : 23,976 (24000/1001) кадра/сек
Цветовое пространство : YUV
Субдискретизация насыщенности : 4:2:0
Битовая глубина : 8 бит
Тип развёртки : Прогрессивная
Бит/(Пиксели*Кадры) : 0.154
Размер потока : 1,13 Гбайт (77%)
Заголовок : Bridget Jones's Baby (2016) (Rip by stalkerok)
Библиотека кодирования : x264 core 148 r2705+54 9f484c1 t_mod_Custom [8-bit@all X86_64]
Настройки программы : cabac=1 / ref=11 / deblock=1:-3:-2 / analyse=0x3:0x133 / me=umh / subme=10 / psy=1 / fade_compensate=0.00 / psy_rd=1.00:0.00 / mixed_ref=1 / me_range=32 / chroma_me=1 / trellis=2 / 8x8dct=1 / cqm=0 / deadzone=21,11 / fast_pskip=0 / chroma_qp_offset=-2 / threads=12 / lookahead_threads=3 / sliced_threads=0 / nr=0 / decimate=0 / interlaced=0 / bluray_compat=0 / constrained_intra=0 / fgo=0 / bframes=14 / b_pyramid=2 / b_adapt=2 / b_bias=0 / direct=3 / weightb=1 / open_gop=0 / weightp=2 / keyint=240 / keyint_min=23 / scenecut=40 / intra_refresh=0 / rc_lookahead=60 / rc=2pass / mbtree=0 / bitrate=1316 / ratetol=1.0 / qcomp=0.65 / qpmin=0:0:0 / qpmax=69:69:69 / qpstep=4 / cplxblur=20.0 / qblur=0.5 / vbv_maxrate=50000 / vbv_bufsize=62500 / nal_hrd=none / filler=0 / ip_ratio=1.40 / pb_ratio=1.30 / aq=3:0.85 / aq-sensitivity=10.00 / aq-factor=1.00:1.00:1.00 / aq2=0 / aq3=0
Default : Да
Forced : Нет
Аудио
Идентификатор : 2
Формат : AC-3
Формат/Информация : Audio Coding 3
Расширение режима : CM (complete main)
Параметр Endianness формата : Big
Идентификатор кодека : A_AC3
Продолжительность : 2 ч. 2 м.
Вид битрейта : Постоянный
Битрейт : 384 Кбит/сек
Каналы : 6 каналов
Расположение каналов : Front: L C R, Side: L R, LFE
Частота : 48,0 КГц
Частота кадров : 31,250 кадров/сек (1536 spf)
Метод сжатия : С потерями
Размер потока : 337 Мбайт (23%)
Язык : Russian
Default : Да
Forced : Нет
Текст
Идентификатор : 3
Формат : UTF-8
Идентификатор кодека : S_TEXT/UTF8
Идентификатор кодека/Информация : UTF-8 Plain Text
Продолжительность : 1 ч. 50 м.
Битрейт : 3 бит/сек
Count of elements : 47
Размер потока : 2,78 Кбайт (0%)
Заголовок : Forced
Язык : Russian
Default : Да
Forced : Нет
Меню
00:00:00.000 : en:(01)00:00:00:000
00:08:49.528 : en:(02)00:08:49:528
00:16:21.562 : en:(03)00:16:21:562
00:24:09.655 : en:(04)00:24:09:655
00:29:54.625 : en:(05)00:29:54:625
00:34:51.297 : en:(06)00:34:51:297
00:41:29.235 : en:(07)00:41:29:235
00:47:42.400 : en:(08)00:47:42:400
00:52:05.454 : en:(09)00:52:05:454
00:57:44.835 : en:(10)00:57:44:835
01:03:38.313 : en:(11)01:03:38:313
01:08:12.880 : en:(12)01:08:12:880
01:13:17.475 : en:(13)01:13:17:475
01:20:48.551 : en:(14)01:20:48:551
01:27:32.997 : en:(15)01:27:32:997
01:37:28.175 : en:(16)01:37:28:175
01:43:18.442 : en:(17)01:43:18:442
01:48:10.567 : en:(18)01:48:10:567
01:51:53.664 : en:(19)01:51:53:664
01:56:07.793 : en:(20)01:56:07:793

Скриншоты

[Profile]  [PM] 
Display posts:    
Reply to topic

Current time is: 15-Dec 04:37

All times are UTC + 2



You cannot post new topics in this forum
You cannot reply to topics in this forum
You cannot edit your posts in this forum
You cannot delete your posts in this forum
You cannot vote in polls in this forum
You cannot attach files in this forum
You cannot download files in this forum