Президент Обама: От первого лица / The 44th President-in his own words [2017, Документальный, HDTVRip 720p]

Reply to topic
 
Author
Message

Atila ®

Gender: Unknown

Longevity: 7 years 5 months

Posts: 2508

Reputation: 0 [+] [-]

Atila · Post 08-Feb-2017 22:50

[Quote] 

Президент Обама: От первого лица / The 44th President-in his own words Год выпуска: 2017
Страна: США
Студия: History Chanel
Жанр: Документальный
Продолжительность: 01:25:00
Русские субтитры: нет
Описание: В двухчасовом документальном фильме бывший президент США Барак Обама расскажет о своем президентстве и достижениях, которые, как он надеется, принесли пользу стране. От Реформы здравоохранения и защиты пациентов до охоты на Осаму Бен Ладена. Обама поделится своими мыслями о том, какой была страна до его президентства, какая она сейчас, и как ему видится ее будущее.
Тип релиза: HDTVRip 720p
Контейнер: MKV
Видео: 1280х720 (16:9); 25.000 fps; 3500 Кбит/с
Аудио: Русский AC3, 2 ch, 192 Кбит/с
Релиз:
Сэмпл

MediaInfo

Format                      : MatroskaFormat version              : Version 4 / Version 2File size                   : 2.21 GiBDuration                    : 1 h 25 minOverall bit rate            : 3 697 kb/sEncoded date                : UTC 2017-02-07 23:40:31Writing application         : mkvmerge v7.8.0 ('River Man') 32bit built on Mar 27 2015 16:18:02Writing library             : libebml v1.3.1 + libmatroska v1.4.2
VideoID : 1Format : AVCFormat/Info : Advanced Video CodecFormat profile : High@L4.1Format settings, CABAC : YesFormat settings, ReFrames : 8 framesCodec ID : V_MPEG4/ISO/AVCDuration : 1 h 25 minBit rate : 3 500 kb/sWidth : 1 280 pixelsHeight : 720 pixelsDisplay aspect ratio : 16:9Frame rate mode : ConstantFrame rate : 23.976 (23976/1000) FPSColor space : YUVChroma subsampling : 4:2:0Bit depth : 8 bitsScan type : ProgressiveBits/(Pixel*Frame) : 0.158Stream size : 2.09 GiB (95%)Writing library : x264 core 146 r2538 121396cEncoding settings : cabac=1 / ref=8 / deblock=1:-1:-1 / analyse=0x3:0x113 / me=umh / subme=9 / psy=1 / psy_rd=1.00:0.20 / mixed_ref=1 / me_range=24 / chroma_me=1 / trellis=2 / 8x8dct=1 / cqm=0 / deadzone=21,11 / fast_pskip=0 / chroma_qp_offset=-3 / threads=12 / lookahead_threads=1 / sliced_threads=0 / nr=0 / decimate=0 / interlaced=0 / bluray_compat=0 / constrained_intra=0 / bframes=6 / b_pyramid=2 / b_adapt=2 / b_bias=0 / direct=3 / weightb=1 / open_gop=0 / weightp=2 / keyint=250 / keyint_min=23 / scenecut=40 / intra_refresh=0 / rc_lookahead=50 / rc=2pass / mbtree=1 / bitrate=3500 / ratetol=1.0 / qcomp=0.60 / qpmin=0 / qpmax=69 / qpstep=4 / cplxblur=20.0 / qblur=0.5 / vbv_maxrate=14000 / vbv_bufsize=14000 / nal_hrd=none / filler=0 / ip_ratio=1.40 / aq=1:1.00Language : EnglishDefault : NoForced : No
AudioID : 2Format : AC-3Format/Info : Audio Coding 3Mode extension : CM (complete main)Format settings, Endianness : BigCodec ID : A_AC3Duration : 1 h 25 minBit rate mode : ConstantBit rate : 192 kb/sChannel(s) : 2 channelsChannel positions : Front: L RSampling rate : 48.0 kHzFrame rate : 31.250 FPS (1536 spf)Bit depth : 16 bitsCompression mode : LossyStream size : 117 MiB (5%)Language : EnglishDefault : NoForced : No

Скриншоты

[Profile]  [PM] 
Display posts:    
Reply to topic

Current time is: 09-Dec 04:26

All times are UTC + 2



You cannot post new topics in this forum
You cannot reply to topics in this forum
You cannot edit your posts in this forum
You cannot delete your posts in this forum
You cannot vote in polls in this forum
You cannot attach files in this forum
You cannot download files in this forum