По соображениям совести / Hacksaw Ridge (Мэл Гибсон / Mel Gibson) [2016, США, Драма, военный, история, WEB-DLRip-AVC] MVO

Reply to topic
 
Author
Message

Satyr ®

Gender: Unknown

Longevity: 10 years

Posts: 15328

Reputation: 54 [+] [-]

Satyr · Post 09-Feb-2017 11:05

[Quote] 

По соображениям совести / Hacksaw Ridge- Год выпуска: 2016
Выпущено: Австралия, США / Icon Productions
Жанр: драма, военный, история
Продолжительность: 02:19:19
Перевод: Любительский (многоголосый, закадровый) Студия "Paradox" & Omskbird records"
Cубтитры: нет
Навигация по главам: Есть (13 глав)-Режиссер:
Мэл Гибсон / Mel Gibson-В ролях:
Эндрю Гарфилд (Desmond Doss), Сэм Уортингтон (Captain Glover), Тереза Палмер (Dorothy Schutte), Люк Брейси (Smitty Ryker), Винс Вон (Sgt Howell), Хьюго Уивинг (Tom Doss), Рэйчел Гриффитс (Bertha Doss), Натаниэль Бузолич (Harold «Hal» Doss), Ричард Роксбург (Colonel Stelzer), Фирэсс Дирани (Vito Rinnelli)-Описание:
Медик Американской армии времён Второй Мировой войны Дезмонд Досс, который служил во время битвы за Окинаву, отказывается убивать людей и становится первым идейным уклонистом в американской истории, удостоенным Медали Почёта.-Релиз групп | | IMDB | КиноПоиск | Сэмпл |-Качество: WEB-DLRip-AVC [Hacksaw Ridge 2016 1080p WEB-DL DD5.1 H.264-FGT]
Формат: MKV
Видео: 816x336 (2,40:1), 23,976 fps, x264 ~1310 kbps avg, 0.199 bit/pixel
Аудио: 48 kHz, AC3 Dolby Digital, 2/0 (L,R) ch, ~192 kbps avg
-

Скриншоты

-

MediaInfo

Общее
Полное имя                               : D:\Po_soobrazheniyam_sovesti_2016_WEB-DLRip-AVC_MVO_by_Dalemake.mkv
Формат                                   : Matroska
Версия формата                           : Version 4 / Version 2
Размер файла                             : 1,46 Гбайт
Продолжительность                        : 2 ч. 19 м.
Общий поток                              : 1503 Кбит/сек
Название фильма                          : [Hacksaw_Ridge_5_2016_All Films Rutracker.org_by Dalemake]
Дата кодирования                         : UTC 2017-02-08 03:56:42
Программа кодирования                    : mkvmerge v7.8.0 ('River Man') 32bit built on Apr  3 2015 12:11:22
Библиотека кодирования                   : libebml v1.3.1 + libmatroska v1.4.2
DURATION                                 : 02:19:19.328000000
NUMBER_OF_FRAMES                         : 261229
NUMBER_OF_BYTES                          : 200623872
_STATISTICS_WRITING_APP                  : mkvmerge v7.8.0 ('River Man') 32bit built on Apr  3 2015 12:11:22
_STATISTICS_WRITING_DATE_UTC             : 2017-02-08 03:56:42
_STATISTICS_TAGS                         : BPS DURATION NUMBER_OF_FRAMES NUMBER_OF_BYTES
Видео
Идентификатор                            : 1
Формат                                   : AVC
Формат/Информация                        : Advanced Video Codec
Профиль формата                          : High@L4.1
Параметр CABAC формата                   : Да
Параметр ReFrames формата                : 9 кадров
Идентификатор кодека                     : V_MPEG4/ISO/AVC
Продолжительность                        : 2 ч. 19 м.
Битрейт                                  : 1310 Кбит/сек
Ширина                                   : 816 пикселей
Высота                                   : 336 пикселей
Соотношение сторон                       : 2,40:1
Частота кадров                           : 23,976 кадра/сек
Цветовое пространство                    : YUV
Субдискретизация насыщенности            : 4:2:0
Битовая глубина                          : 8 бит
Тип развёртки                            : Прогрессивная
Бит/(Пиксели*Кадры)                      : 0.199
Размер потока                            : 1,25 Гбайт (85%)
Заголовок                                : [Hacksaw_Ridge_5_2016_All Films Rutracker.org_by Dalemake]
Библиотека кодирования                   : x264 core 146 r2538 121396c
Настройки программы                      : cabac=1 / ref=9 / deblock=1:-2:-1 / analyse=0x3:0x133 / me=umh / subme=11 / psy=1 / psy_rd=1.00:0.00 / mixed_ref=1 / me_range=48 / chroma_me=1 / trellis=2 / 8x8dct=1 / cqm=0 / deadzone=21,11 / fast_pskip=1 / chroma_qp_offset=-4 / threads=6 / lookahead_threads=1 / sliced_threads=0 / nr=0 / decimate=0 / interlaced=0 / bluray_compat=0 / constrained_intra=0 / bframes=10 / b_pyramid=2 / b_adapt=2 / b_bias=0 / direct=3 / weightb=1 / open_gop=0 / weightp=2 / keyint=240 / keyint_min=23 / scenecut=40 / intra_refresh=0 / rc_lookahead=60 / rc=2pass / mbtree=0 / bitrate=1310 / ratetol=1.0 / qcomp=0.60 / qpmin=0 / qpmax=69 / qpstep=4 / cplxblur=20.0 / qblur=0.5 / vbv_maxrate=50000 / vbv_bufsize=62500 / nal_hrd=none / filler=0 / ip_ratio=1.30 / pb_ratio=1.25 / aq=1:1.00
Default                                  : Да
Forced                                   : Да
Аудио
Идентификатор                            : 2
Формат                                   : AC-3
Формат/Информация                        : Audio Coding 3
Расширение режима                        : CM (complete main)
Параметр Endianness формата              : Big
Идентификатор кодека                     : A_AC3
Продолжительность                        : 2 ч. 19 м.
Вид битрейта                             : Постоянный
Битрейт                                  : 192 Кбит/сек
Каналы                                   : 2 канала
Расположение каналов                     : Front: L R
Частота                                  : 48,0 КГц
Битовая глубина                          : 16 бит
Метод сжатия                             : С потерями
Размер потока                            : 191 Мбайт (13%)
Заголовок                                : MVO (Paradox" & Omskbird records)
Язык                                     : Russian
Default                                  : Да
Forced                                   : Да
Меню
00:00:00.000                             : en:1
00:03:01.000                             : en:2
00:14:11.000                             : en:3
00:26:35.000                             : en:4
00:40:05.000                             : en:5
00:50:39.000                             : en:6
01:03:36.000                             : en:7
01:10:14.000                             : en:8
01:24:46.000                             : en:9
01:39:03.000                             : en:10
01:48:34.000                             : en:11
01:59:49.000                             : en:12
02:11:06.000                             : en:13

Студия "Paradox" & Omskbird records"

• Роли озвучивали: Марина Гассан, Максим Максимов, Павел Ярощик, Денис Строев, Станислав Черсков
• Перевод: Татьяна Масаковская
• Звукорежиссер: Павел Квентов
За дорогу (без рекламы) спасибо Twi7ter
-
[Profile]  [PM] 
Display posts:    
Reply to topic

Current time is: 28-Jan 06:35

All times are UTC + 2



You cannot post new topics in this forum
You cannot reply to topics in this forum
You cannot edit your posts in this forum
You cannot delete your posts in this forum
You cannot vote in polls in this forum
You cannot attach files in this forum
You cannot download files in this forum