По соображениям совести / Hacksaw Ridge (Мэл Гибсон / Mel Gibson) [2016, Австралия, США, драма, военный, история, HDRip-AVC] MVO + Original + Sub (eng)

Reply to topic
 
Author
Message

Satyr ®

Online

Gender: Unknown

Longevity: 10 years

Posts: 14651

Reputation: 54 [+] [-]

Satyr · Post 09-Feb-2017 11:05

[Quote] 

По соображениям совести / Hacksaw Ridge«Based on the incredible true story»- Страна: Австралия, США
Жанр: драма, военный, история
Год выпуска: 2016
Продолжительность: 02:19:19
Перевод: Любительский (многоголосый, закадровый) (Студия "Paradox" & Omskbird records)
Оригинальная аудиодорожка: английский
Субтитры: английские (полные, SDH)
Навигация по главам: есть
Режиссер: Мэл Гибсон / Mel Gibson
В ролях: Эндрю Гарфилд (Desmond Doss), Сэм Уортингтон (Captain Glover), Тереза Палмер (Dorothy Schutte), Люк Брейси (Smitty Ryker), Винс Вон (Sgt Howell), Хьюго Уивинг (Tom Doss), Рэйчел Гриффитс (Bertha Doss), Натаниэль Бузолич (Harold «Hal» Doss), Ричард Роксбург (Colonel Stelzer), Фирэсс Дирани (Vito Rinnelli), Ричард Пирос (Teach), Джейкоб Уорнер (James Pinnick)
Описание: Медик Американской армии времён Второй Мировой войны Дезмонд Досс, который служил во время битвы за Окинаву, отказывается убивать людей и становится первым идейным уклонистом в американской истории, удостоенным Медали Почёта.- -Качество: HDRip-AVC (исходник - Hacksaw.Ridge.2016.1080p.BluRay.x264-SPARKS)
Формат видео: MKV
Видео: x264, 1072x450 (2.40:1) 23,976 fps, ~1528 kbps, 0.132 bit/pixel
Аудио 1: 48 kHz, AC3 Dolby Digital, 2.0 (Front: L R) ch, ~192 kbps, [русский]
Аудио 2: 48 kHz, AC3 Dolby Digital, 5.1 (Front: L C R, Side: L R, LFE) ch, ~384 kbps, [английский]
Формат субтитров: softsub (SRT)-

MediaInfo | x264 log

Format : Matroska
Format version : Version 4 / Version 2
File size : 2.09 GiB
Duration : 2 h 19 min
Overall bit rate : 2 148 kb/s
Movie name : По соображениям совести / Hacksaw Ridge (2016) :: AFM ::
Encoded date : UTC 2017-02-08 20:20:29
Writing application : mkvmerge v8.3.0 ('Over the Horizon') 32bit
Writing library : libebml v1.3.1 + libmatroska v1.4.2
Video
ID : 1
Format : AVC
Format/Info : Advanced Video Codec
Format profile : High@L4.1
Format settings, CABAC : Yes
Format settings, ReFrames : 9 frames
Codec ID : V_MPEG4/ISO/AVC
Duration : 2 h 19 min
Bit rate : 1 529 kb/s
Width : 1 072 pixels
Height : 450 pixels
Display aspect ratio : 2.40:1
Frame rate mode : Constant
Frame rate : 23.976 (24000/1001) FPS
Color space : YUV
Chroma subsampling : 4:2:0
Bit depth : 8 bits
Scan type : Progressive
Bits/(Pixel*Frame) : 0.132
Stream size : 1.49 GiB (71%)
Title : HDRip by AFM
Writing library : x264 core 148 r2762+56 6284cf3 t_mod_Custom [8-bit@all X86_64]
Encoding settings : cabac=1 / ref=9 / deblock=1:-2:-2 / analyse=0x3:0x133 / me=umh / subme=10 / psy=1 / fade_compensate=0.00 / psy_rd=1.00:0.00 / mixed_ref=1 / me_range=32 / chroma_me=1 / trellis=2 / 8x8dct=1 / cqm=0 / deadzone=21,11 / fast_pskip=0 / chroma_qp_offset=-2 / threads=6 / lookahead_threads=1 / sliced_threads=0 / nr=0 / decimate=1 / interlaced=0 / bluray_compat=0 / constrained_intra=0 / fgo=0 / bframes=10 / b_pyramid=2 / b_adapt=2 / b_bias=0 / direct=1 / weightb=1 / open_gop=0 / weightp=2 / keyint=240 / keyint_min=23 / scenecut=40 / intra_refresh=0 / rc_lookahead=60 / rc=crf / mbtree=0 / crf=19.8000 / qcomp=0.65 / qpmin=0:0:0 / qpmax=69:69:69 / qpstep=4 / vbv_maxrate=50000 / vbv_bufsize=62500 / crf_max=0.0 / nal_hrd=none / filler=0 / ip_ratio=1.35 / pb_ratio=1.30 / aq=3:0.90 / aq-sensitivity=10.00 / aq-factor=1.00:1.00:1.00 / aq2=0 / aq3=1:[0.30:0.30]:[0.30:0.30]:[0.30:0.30]:[0.30:0.30] / aq3-sensitivity=10.00 / aq3-factor=[1.00:1.00]:[1.00:1.00]:[1.00:1.00] / aq3-boundary=192:64:24 / zones=188370,200424,q=30
Language : English
Default : Yes
Forced : No
Audio #1
ID : 2
Format : AC-3
Format/Info : Audio Coding 3
Mode extension : CM (complete main)
Format settings, Endianness : Big
Codec ID : A_AC3
Duration : 2 h 19 min
Bit rate mode : Constant
Bit rate : 192 kb/s
Channel(s) : 2 channels
Channel positions : Front: L R
Sampling rate : 48.0 kHz
Frame rate : 31.250 FPS (1536 spf)
Compression mode : Lossy
Stream size : 191 MiB (9%)
Title : MVO, AC3 2.0 ~192 kbps
Language : Russian
Default : Yes
Forced : No
Audio #2
ID : 3
Format : AC-3
Format/Info : Audio Coding 3
Mode extension : CM (complete main)
Format settings, Endianness : Big
Codec ID : A_AC3
Duration : 2 h 19 min
Bit rate mode : Constant
Bit rate : 384 kb/s
Channel(s) : 6 channels
Channel positions : Front: L C R, Side: L R, LFE
Sampling rate : 48.0 kHz
Frame rate : 31.250 FPS (1536 spf)
Compression mode : Lossy
Stream size : 383 MiB (18%)
Title : Original, AC3 5.1 ~384 kbps
Language : English
Default : No
Forced : No
Text #1
ID : 4
Format : UTF-8
Codec ID : S_TEXT/UTF8
Codec ID/Info : UTF-8 Plain Text
Language : English
Default : No
Forced : No
Text #2
ID : 5
Format : UTF-8
Codec ID : S_TEXT/UTF8
Codec ID/Info : UTF-8 Plain Text
Title : SDH
Language : English
Default : No
Forced : No
Menu
00:00:00.000 : en:Chapter 01
00:09:18.766 : en:Chapter 02
00:18:41.996 : en:Chapter 03
00:26:34.510 : en:Chapter 04
00:33:00.562 : en:Chapter 05
00:40:04.152 : en:Chapter 06
00:50:07.212 : en:Chapter 07
00:57:01.543 : en:Chapter 08
01:04:21.649 : en:Chapter 09
01:17:50.207 : en:Chapter 10
01:23:58.700 : en:Chapter 11
01:31:21.726 : en:Chapter 12
01:39:02.812 : en:Chapter 13
01:46:07.569 : en:Chapter 14
01:59:48.306 : en:Chapter 15
02:07:13.292 : en:Chapter 16

x264

x264 [info]: frame I:1925 Avg QP:17.44 size: 50968
x264 [info]: frame P:49361 Avg QP:19.11 size: 16260
x264 [info]: frame B:149138 Avg QP:21.61 size: 4956
x264 [info]: consecutive B-frames: 2.4% 2.8% 7.6% 57.3% 8.3% 14.2% 1.5% 4.2% 0.4% 0.2% 1.2%
x264 [info]: mb I I16..4: 7.0% 73.7% 19.3%
x264 [info]: mb P I16..4: 1.6% 12.6% 2.5% P16..4: 40.4% 18.8% 12.8% 0.5% 0.2% skip:10.6%
x264 [info]: mb B I16..4: 0.2% 1.4% 0.3% B16..8: 37.4% 9.5% 2.3% direct: 3.5% skip:45.5% L0:41.5% L1:47.3% BI:11.2%
x264 [info]: 8x8 transform intra:74.6% inter:70.9%
x264 [info]: coded y,uvDC,uvAC intra: 75.1% 76.1% 38.7% inter: 16.4% 12.2% 0.7%
x264 [info]: i16 v,h,dc,p: 21% 17% 7% 55%
x264 [info]: i8 v,h,dc,ddl,ddr,vr,hd,vl,hu: 14% 9% 7% 8% 13% 12% 13% 11% 13%
x264 [info]: i4 v,h,dc,ddl,ddr,vr,hd,vl,hu: 24% 6% 4% 8% 13% 12% 12% 9% 11%
x264 [info]: i8c dc,h,v,p: 36% 30% 20% 14%
x264 [info]: Weighted P-Frames: Y:3.5% UV:0.2%
x264 [info]: ref P L0: 51.5% 12.4% 15.1% 6.1% 4.7% 3.6% 2.9% 1.8% 1.8% 0.1% 0.0%
x264 [info]: ref B L0: 81.1% 8.9% 4.2% 2.0% 1.6% 1.2% 0.7% 0.3%
x264 [info]: ref B L1: 95.4% 4.6%
x264 [info]: kb/s:1569.35

Скриншоты

с названием

[Profile]  [PM] 
Display posts:    
Reply to topic

Current time is: 15-Dec 05:08

All times are UTC + 2



You cannot post new topics in this forum
You cannot reply to topics in this forum
You cannot edit your posts in this forum
You cannot delete your posts in this forum
You cannot vote in polls in this forum
You cannot attach files in this forum
You cannot download files in this forum