Принцесса Мален / Prinzessin Maleen (Маттиас Штойрер / Matthias Steurer) [2015, Германия, Сказка для детей, SATRip] DVO

Reply to topic
 
Author
Message

Satyr ®

Gender: Unknown

Longevity: 10 years

Posts: 14656

Reputation: 54 [+] [-]

Satyr · Post 09-Feb-2017 15:10

[Quote] 

Принцесса Мален / Prinzessin Maleen
Страна: Германия
Жанр: Сказка для детей
Год выпуска: 2015
Продолжительность: 00:58:29
Перевод: Профессиональный (двухголосый закадровый)
Cубтитры: нет
Режиссер: Маттиас Штойрер / Matthias Steurer
В ролях: Клео фон Адельсхайм, Петер Фойзе, Гюнтер Мария Хальмер, Гёц Отто, Мариэлла Аренс, Торстен Ниндель, Лукас Райбер, Паула Пауль
Описание: По мотивам сказки братьев Гримм "Дева Малейн". Принцесса Малейн и граф Конрад знаю друг друга с детства. За столь долгое время их дружеское общение переросло во взаимную любовь. Конрад делает предложение Малейн и она очень рада такому повороту в их отношениях, но для начала им предстоит получить её отца согласие на брак. Малейн и Конрад идут к отцу принцессы, но он им отказывает, он считает Конрада несостоятельным женихом для своей дочки. По его мнению, влиятельный и богатый Раймунд из соседней страны является более достойной парой для Малейн, нежели обедневший граф из соседнего графства. Девушка готова на многое, лишь бы не выходить замуж за Раймунда. Король запрещает ей впредь встречаться с Конрадом. Однако его решение для влюблённых не преграда и вскоре Раймунд раскрывает их тайные встречи. В качестве наказания отец Малейн решает заключить непослушную дочку в башню на 7 лет. По истечению срока заточения она выходит на долгожданную свободу. За это время многое изменилось. Её отец умер, а королевство после войны пришло в упадок. Но главные испытания для Малейн были впереди. Но в итоге, всё закончилось хорошо.

вариант описания

Сказка братьев Гримм "Дева Малейн" - "Jungfrau Maleen" - о юной принцессе, заточенной непедагогичным папой в черную башню.
Так он спасал её от сомнительной любви к принцу соседнего королевства.
Однако не прошло и семи лет, как любовь девы сломала кладку темницы и соединила её с возлюбленным.
Доп. информация: от 6 лет
Сэмпл: http://multi-up.com/1139660
Качество видео: SATRip
Формат видео: AVI
Видео: XviD, 1600 Кбит/сек, 720х416 пикс, 25,0 кадров/сек, 0.214 Бит/(Пиксели*Кадры)
Аудио: MP3, 160 Кбит/сек, 48,0 КГц, 2 канала

MediaInfo

Общее
Полное имя : C:\фильмы\02 возможно для раздачи\Принцесса Мален 2015г\Принцесса Мален 2015г.avi
Формат : AVI
Формат/Информация : Audio Video Interleave
Размер файла : 741 Мбайт
Продолжительность : 58 м.
Общий поток : 1771 Кбит/сек
Видео
Идентификатор : 0
Формат : MPEG-4 Visual
Профиль формата : Advanced Simple@L4
Параметр BVOP формата : Нет
Параметр QPel формата : Нет
Параметр GMC формата : Без точки перехода
Параметр матрицы формата : Default (H.263)
Идентификатор кодека : XVID
Идентификатор кодека/Подсказка : XviD
Продолжительность : 58 м.
Битрейт : 1601 Кбит/сек
Ширина : 720 пикселей
Высота : 416 пикселей
Соотношение сторон : 1,731
Частота кадров : 25,000 кадров/сек
Цветовое пространство : YUV
Субдискретизация насыщенности : 4:2:0
Битовая глубина : 8 бит
Тип развёртки : Прогрессивная
Метод сжатия : С потерями
Бит/(Пиксели*Кадры) : 0.214
Размер потока : 670 Мбайт (90%)
Аудио
Идентификатор : 1
Формат : MPEG Audio
Версия формата : Version 1
Профиль формата : Layer 3
Идентификатор кодека : 55
Идентификатор кодека/Подсказка : MP3
Продолжительность : 58 м.
Продолжительность оригинала : 58 м.
Вид битрейта : Постоянный
Битрейт : 160 Кбит/сек
Каналы : 2 канала
Частота : 48,0 КГц
Метод сжатия : С потерями
Размер потока : 66,9 Мбайт (9%)
Выравнивание : Соединение по промежуткам
Продолжительность промежутка : 40 мс. (1,00 видеокадр)

Скриншот c названием фильма

Скриншоты

предыдущие или аналогичные раздачи

любые раздачи сказок братьев Гримм

источник рипа

источник рипа телепередача телеканал "Детский"
[Profile]  [PM] 
Display posts:    
Reply to topic

Current time is: 16-Dec 10:17

All times are UTC + 2



You cannot post new topics in this forum
You cannot reply to topics in this forum
You cannot edit your posts in this forum
You cannot delete your posts in this forum
You cannot vote in polls in this forum
You cannot attach files in this forum
You cannot download files in this forum