Новая эра Z / The Girl with All the Gifts (Колм МакКарти / Colm McCarthy) [2016, США, Великобритания, ужасы, триллер, драма, HDRip] AVO (Дохалов)

Reply to topic
 
Author
Message

Satyr ®

Gender: Unknown

Longevity: 10 years

Posts: 14651

Reputation: 54 [+] [-]

Satyr · Post 09-Feb-2017 23:20

[Quote] 

Новая эра Z / The Girl with All the Gifts Страна: США, Великобритания
Жанр: ужасы, триллер, драма
Год выпуска: 2016
Продолжительность: 01:50:55
Перевод: Авторский (одноголосый закадровый) Вартан Дохалов
Cубтитры: нет
Режиссер: Колм МакКарти / Colm McCarthy
В ролях: Джемма Артертон, Гленн Клоуз, Пэдди Консидайн, Анамария Маринка, Доминик Типпер, Сенниа Нануа, Лобна Фьютерс, Дэниэл Иган, Фисайо Акинаде, Энтони Уэльс
Описание: Война миров не закончилась. Планету поразил страшный вирус. На людей стали нападать инфицированные особи, поставив человечество на грань исчезновения. Единственная надежда — второе поколение зараженных, опасных, но обладающих феноменальным, более высоким, чем у людей, интеллектом. Они — ключ к созданию спасительной вакцины. Поэтому их держат в специальном бункере, оберегая от контактов с внешним миром. Но однажды ситуация выходит из-под контроля.

Качество видео: НDRip
Формат видео: AVI
Видео кодек: XviD
Аудио кодек: AC3
Видео: 704x352 (2.00:1), 23.976 fps, XviD build 73 ~1473 kbps avg, 0.25 bit/pixel
Аудио: 48 kHz, AC3 Dolby Digital, 3/2 (L,C,R,l,r) + LFE ch, ~384 kbps avg

Доп.инфо

за видеоряд спасибо Scarabey
за Дохалова спасибо Nadoelo

MediaInfo

Complete name : Новая эра Z.avi
Format : AVI
Format/Info : Audio Video Interleave
File size : 1.45 GiB
Duration : 1 h 50 min
Overall bit rate : 1 867 kb/s
Writing application : VirtualDubMod 1.5.10.3 | www.virtualdub-fr.org || (build 2550/release)
Writing library : VirtualDubMod build 2550/release
Video
ID : 0
Format : MPEG-4 Visual
Format profile : Advanced Simple@L5
Format settings, BVOP : 1
Format settings, QPel : No
Format settings, GMC : No warppoints
Format settings, Matrix : Custom
Codec ID : XVID
Codec ID/Hint : XviD
Duration : 1 h 50 min
Bit rate : 1 474 kb/s
Width : 704 pixels
Height : 352 pixels
Display aspect ratio : 2.000
Frame rate : 23.976 (24000/1001) FPS
Original frame rate : 23.976 (23976/1000) FPS
Color space : YUV
Chroma subsampling : 4:2:0
Bit depth : 8 bits
Scan type : Progressive
Compression mode : Lossy
Bits/(Pixel*Frame) : 0.248
Stream size : 1.14 GiB (79%)
Writing library : XviD 73
Audio
ID : 1
Format : AC-3
Format/Info : Audio Coding 3
Mode extension : CM (complete main)
Format settings, Endianness : Big
Codec ID : 2000
Duration : 1 h 50 min
Bit rate mode : Constant
Bit rate : 384 kb/s
Channel(s) : 6 channels
Channel positions : Front: L C R, Side: L R, LFE
Sampling rate : 48.0 kHz
Frame rate : 31.250 FPS (1536 spf)
Bit depth : 16 bits
Compression mode : Lossy
Stream size : 305 MiB (21%)
Alignment : Split accross interleaves
Interleave, duration : 42 ms (1.00 video frame)
Interleave, preload duratio : 500 ms

Скриншоты

[Profile]  [PM] 
Display posts:    
Reply to topic

Current time is: 15-Dec 05:39

All times are UTC + 2



You cannot post new topics in this forum
You cannot reply to topics in this forum
You cannot edit your posts in this forum
You cannot delete your posts in this forum
You cannot vote in polls in this forum
You cannot attach files in this forum
You cannot download files in this forum