Американская пастораль / American Pastoral (Юэн МакГрегор / Ewan McGregor) [2016, США, Драма, криминал, HDRip] VO (Solod)

Reply to topic
 
Author
Message

Satyr ®

Gender: Unknown

Longevity: 10 years

Posts: 14611

Reputation: 54 [+] [-]

Satyr · Post 09-Feb-2017 23:20

[Quote] 

Американская пастораль / American Pastoral- Год выхода: 2016
Выпущено: США, Гонконг / Lakeshore Entertainment
Жанр: драма, криминал
Продолжительность: 01:48:16
Перевод: Одноголосый закадровый Solod
Субтитры: нет-Режиссер:
Юэн МакГрегор / Ewan McGregor-В ролях:
Юэн МакГрегор (Swede Levov), Дженнифер Коннелли (Dawn Levov), Дакота Фаннинг (Merry Levov), Дэвид Стрэтэйрн (Nathan Zuckerman), Питер Ригерт (Lou Levov), Руперт Эванс (Jerry Levov), Узо Адуба (Vicky), Молли Паркер (Sheila Smith), Вэлори Керри (Rita Cohen), Ханна Нордберг (Merry Levov (12 Years Old)), Джулия Силверман (Sylvia Levov)-О фильме:
Прекрасный гражданин, семьянин, трудолюбивый предприниматель, унаследовавший от отца небольшую фабрику, главный герой Сеймур — столп американского общества и наслаждается вместе со страной послевоенным процветанием. Но приходят 60-е и мир, который строил Сеймур, начинает рушиться, а самый болезненный удар наносит дочь, выбравшая путь политического террора.-Релиз групп | | IMDB | КиноПоиск | Сэмпл |-Качество: HDRip
Формат: AVI
Видео: 720x304 (2.37:1), 23.976 fps, XviD build 67 ~1469 kbps avg, 0.28 bit/pixel
Аудио: 48 kHz, AC3 Dolby Digital, 3/2 (L,C,R,l,r) + LFE ch, ~448.00 kbps avg
-

Скриншоты

-

MediaInfo

Общее
Полное имя                               : D:\American_Pastoral_2016_HDRip_VO_by_Dalemake.avi
Формат                                   : AVI
Формат/Информация                        : Audio Video Interleave
Размер файла                             : 1,46 Гбайт
Продолжительность                        : 1 ч. 48 м.
Общий поток                              : 1927 Кбит/сек
Программа кодирования                    : VirtualDubMod 1.5.10.3 | www.virtualdub-fr.org || (build 2550/release)
Библиотека кодирования                   : VirtualDubMod build 2550/release
Видео
Идентификатор                            : 0
Формат                                   : MPEG-4 Visual
Профиль формата                          : Advanced Simple@L5
Параметр BVOP формата                    : 1
Параметр QPel формата                    : Нет
Параметр GMC формата                     : Без точки перехода
Параметр матрицы формата                 : Выборочная
Идентификатор кодека                     : XVID
Идентификатор кодека/Подсказка           : XviD
Продолжительность                        : 1 ч. 48 м.
Битрейт                                  : 1470 Кбит/сек
Ширина                                   : 720 пикселей
Высота                                   : 304 пикселя
Соотношение сторон                       : 2,35:1
Частота кадров                           : 23,976 кадра/сек
Цветовое пространство                    : YUV
Субдискретизация насыщенности            : 4:2:0
Битовая глубина                          : 8 бит
Тип развёртки                            : Прогрессивная
Метод сжатия                             : С потерями
Бит/(Пиксели*Кадры)                      : 0.280
Размер потока                            : 1,11 Гбайт (76%)
Библиотека кодирования                   : XviD 67
Аудио
Идентификатор                            : 1
Формат                                   : AC-3
Формат/Информация                        : Audio Coding 3
Расширение режима                        : CM (complete main)
Параметр Endianness формата              : Big
Идентификатор кодека                     : 2000
Продолжительность                        : 1 ч. 48 м.
Вид битрейта                             : Постоянный
Битрейт                                  : 448 Кбит/сек
Каналы                                   : 6 каналов
Расположение каналов                     : Front: L C R, Side: L R, LFE
Частота                                  : 48,0 КГц
Битовая глубина                          : 16 бит
Метод сжатия                             : С потерями
Размер потока                            : 347 Мбайт (23%)
Выравнивание                             : Разделение по промежуткам
Продолжительность промежутка             : 42  мс. (1,00 видеокадр)
Время предзагрузки промежутка            : 500  мс.
-
[Profile]  [PM] 
Display posts:    
Reply to topic

Current time is: 09-Dec 05:31

All times are UTC + 2



You cannot post new topics in this forum
You cannot reply to topics in this forum
You cannot edit your posts in this forum
You cannot delete your posts in this forum
You cannot vote in polls in this forum
You cannot attach files in this forum
You cannot download files in this forum