Вечеринка с тинейджерами / Teenage Cocktail (Джон Каркьетта / John Carchietta) [2016, США, Триллер, драма, HDRip] VO (Павел Морозов) + Original Eng

Reply to topic
 
Author
Message

Satyr ®

Gender: Unknown

Longevity: 10 years

Posts: 14651

Reputation: 54 [+] [-]

Satyr · Post 09-Feb-2017 23:20

[Quote] 

Вечеринка с тинейджерами / Teenage Cocktail- Страна: США
Жанр: Триллер, драма
Год выпуска: 2016
Продолжительность: 01:28:28-Перевод: Одноголосый закадровый - Павел Морозов (по субтитрам Константина Ломова)
Оригинальная аудиодорожка: английский
Cубтитры: нет-Режиссер: Джон Каркьетта / John Carchietta-В ролях: Николь Блум, Фаббианн Терез, Пэт Хили, Мишель Борт, Джошуа Леонард, Эй Джей Боуэн, Зак Генри, Лу Вегнер, Ривер Александр, Морган Питер Браун-Описание: Юные подружки Энни Бентон и Джулс Рэй живут в маленьком провинциальном городке и решили после окончания школы перебраться в Нью-Йорк, так как обе подвергаются жесткому контролю со стороны родителей и обе мечтают поскорее вступить на путь самостоятельной жизни. Убежать из дому не так-то просто, поэтому они тщательно продумывают побег. Только вот где взять денег на поездку? А не попробовать ли общение в веб-чате с богатыми взрослыми дядями? Попробовали — вроде бы получается. Вот только последствия оказались серьёзными…
Сэмпл: http://multi-up.com/1139889
Качество видео: HDRip / исх. неизвестен
Формат видео: AVI
Видео: 720x304 (2.35:1), 23.976 fps, XviD build 66, 1 726 Kbps, 0.33 bit/pixel
Аудио 1: 48 kHz, AC3 Dolby Digital, 3/2 (L,C,R,l,r) + LFE ch, 448 Kbps [Eng]
Аудио 2: 48 kHz, AC3 Dolby Digital, 3/2 (L,C,R,l,r) + LFE ch, 448 Kbps [Rus]

MediaInfo

General
Complete name : C:\Users\Andreas\Downloads\Teenage.Cocktail.2016.HDRip.XviD.AC3 by Kissy.avi
Format : AVI
Format/Info : Audio Video Interleave
File size : 1.63 GiB
Duration : 1h 28mn
Overall bit rate : 2 639 Kbps
Video #0
ID : 0
Format : MPEG-4 Visual
Format profile : Advanced Simple@L5
Format settings, BVOP : 2
Format settings, QPel : No
Format settings, GMC : No warppoints
Format settings, Matrix : Default (H.263)
Muxing mode : Packed bitstream
Codec ID : XVID
Codec ID/Hint : XviD
Duration : 1h 28mn
Bit rate : 1 726 Kbps
Width : 720 pixels
Height : 304 pixels
Display aspect ratio : 2.35:1
Frame rate : 23.976 fps
Color space : YUV
Chroma subsampling : 4:2:0
Bit depth : 8 bits
Scan type : Progressive
Compression mode : Lossy
Bits/(Pixel*Frame) : 0.329
Stream size : 1.07 GiB (65%)
Writing library : XviD 66
Audio #1
ID : 1
Format : AC-3
Format/Info : Audio Coding 3
Mode extension : CM (complete main)
Format settings, Endianness : Big
Codec ID : 2000
Duration : 1h 28mn
Bit rate mode : Constant
Bit rate : 448 Kbps
Channel(s) : 6 channels
Channel positions : Front: L C R, Side: L R, LFE
Sampling rate : 48.0 KHz
Bit depth : 16 bits
Compression mode : Lossy
Stream size : 283 MiB (17%)
Alignment : Aligned on interleaves
Interleave, duration : 32 ms (0.77 video frame)
Audio #2
ID : 2
Format : AC-3
Format/Info : Audio Coding 3
Mode extension : CM (complete main)
Format settings, Endianness : Big
Codec ID : 2000
Duration : 1h 28mn
Bit rate mode : Constant
Bit rate : 448 Kbps
Channel(s) : 6 channels
Channel positions : Front: L C R, Side: L R, LFE
Sampling rate : 48.0 KHz
Bit depth : 16 bits
Compression mode : Lossy
Stream size : 283 MiB (17%)
Alignment : Aligned on interleaves
Interleave, duration : 32 ms (0.77 video frame)

Скриншот c названием фильма

Скриншоты

[Profile]  [PM] 
Display posts:    
Reply to topic

Current time is: 15-Dec 13:33

All times are UTC + 2



You cannot post new topics in this forum
You cannot reply to topics in this forum
You cannot edit your posts in this forum
You cannot delete your posts in this forum
You cannot vote in polls in this forum
You cannot attach files in this forum
You cannot download files in this forum