Убийца на лестнице / A Killer Upstairs / Killer Instinct (Дуглас Джексон / Douglas Jackson) [2005, Канада, Триллер, DVDRip] MVO

Reply to topic
 
Author
Message

Wolf ®

Gender: Unknown

Longevity: 10 years

Posts: 2821

Reputation: 0 [+] [-]

Wolf · Post 10-Feb-2017 11:35

[Quote] 

Убийца на лестнице / A Killer Upstairs / Killer Instinct
«Смерть ближе, чем ты думаешь...»
Страна: Канада
Жанр: Триллер
Год выпуска: 2005
Продолжительность: 01:30:49
Перевод: Профессиональный (многоголосый закадровый)
Cубтитры: нет
Режиссер: Дуглас Джексон / Douglas Jackson
В ролях: Трэйси Нелсон, Брюс Бокслайтнер, Линден Эшби, Лоррэйн Энселл, Салли Клелфорд, Кристофер Жако, Бретт Келли, Джанет Лэйн
Описание: Когда бывшая супермодель, жена богатого бизнесмена Вивьен Джеймисон найдена убитой, улики указывают на выпускника школы, 17-летнего Майкла Нолина (Кристофер Жако - "Вирус любви", "Восставший из ада 8"). Но его мать Сандра (Трэйси Нельсон - "Без гроша в Беверли-Хиллз", "Ее идеальный муж") не верит неопровержимым фактам и начинает собственное расследование. Проникнув в чужие тайны, она понимает, что убийца всегда был в шаге от нее!..
Доп. информация: За исходник ДВД5 большое спасибо SUPERDVD01
Релиз
Сэмпл: https://yadi.sk/i/A_qQZbQ63DbmcM
Качество видео: DVDRip
Формат видео: AVI
Видео: 704x400 (1.76:1), 25 fps, XviD build 73 ~1953 kbps avg, 0.28 bit/pixel
Аудио: 48 kHz, AC3 Dolby Digital, 2/0 (L,R) ch, ~192 kbps

MediaInfo

Убийца на лестнице - A Killer Upstairs [by Edich2].avi
Format : AVI
Format/Info : Audio Video Interleave
File size : 1.37 GiB
Duration : 1 h 30 min
Overall bit rate : 2 156 kb/s
Movie name : Убийца на лестнице - A Killer Upstairs [by Edich2]
Director : by Edich2
Writing application : VirtualDubMod 1.5.10.2 (build 2540/release)
Comment : torrentsland.com.ua
Video
ID : 0
Format : MPEG-4 Visual
Format profile : Advanced Simple@L5
Format settings, BVOP : 1
Format settings, QPel : No
Format settings, GMC : No warppoints
Format settings, Matrix : Custom
Codec ID : XVID
Codec ID/Hint : XviD
Duration : 1 h 30 min
Bit rate : 1 954 kb/s
Width : 704 pixels
Height : 400 pixels
Display aspect ratio : 16:9
Frame rate : 25.000 FPS
Color space : YUV
Chroma subsampling : 4:2:0
Bit depth : 8 bits
Scan type : Progressive
Compression mode : Lossy
Bits/(Pixel*Frame) : 0.278
Stream size : 1.24 GiB (91%)
Writing library : XviD 73
Audio
ID : 1
Format : AC-3
Format/Info : Audio Coding 3
Mode extension : CM (complete main)
Format settings, Endianness : Big
Codec ID : 2000
Duration : 1 h 30 min
Bit rate mode : Constant
Bit rate : 192 kb/s
Channel(s) : 2 channels
Channel positions : Front: L R
Sampling rate : 48.0 kHz
Frame rate : 31.250 FPS (1536 spf)
Bit depth : 16 bits
Compression mode : Lossy
Delay relative to video : 12 ms
Stream size : 125 MiB (9%)
Alignment : Split accross interleaves
Interleave, duration : 40 ms (1.00 video frame)
Interleave, preload duratio : 500 ms

Скриншоты


[Profile]  [PM] 
Display posts:    
Reply to topic

Current time is: 15-Dec 05:37

All times are UTC + 2



You cannot post new topics in this forum
You cannot reply to topics in this forum
You cannot edit your posts in this forum
You cannot delete your posts in this forum
You cannot vote in polls in this forum
You cannot attach files in this forum
You cannot download files in this forum