Бриджит Джонс 3 / Bridget Jones\'s Baby (Шэрон Магуайр / Sharon Maguire) [2016, Ирландия, Великобритания, Франция, США, мелодрама, комедия, BDRip] Dub + Original Eng + subs (Rus, Rus F, Eng, Eng SDH, Eng SDH Colored)

Reply to topic
 
Author
Message

Satyr ®

Gender: Unknown

Longevity: 10 years

Posts: 14656

Reputation: 54 [+] [-]

Satyr · Post 10-Feb-2017 11:35

[Quote] 

Бриджит Джонс 3 / Bridget Jones's Baby- Год выпуска: 2016
Выпущено: Ирландия, Великобритания, Франция, США
Жанр: мелодрама, комедия
Продолжительность: 02:02:38
Перевод: Профессиональный (полное дублирование) СЕЕ
+ Оригинальная звуковая дорожка
Субтитры: Русские (полные, форсированные), английские (полные, SDH, SDH-COLOR) (внешние srt*)-Режиссер: Шэрон Магуайр / Sharon Maguire
В ролях: Рене Зеллвегер, Колин Фёрт, Патрик Демпси, Джемма Джонс, Джим Бродбент, Сэлли Филлипс, Джулиан Райнд-Татт, Эмма Томпсон, Ширли Хендерсон, Бен Уиллбонд
О фильме: Казалось бы, и карьера — в гору, и квартира — в центре Лондона, но она не была бы Бриджит Джонс, если бы не ее способность оказываться не в то время, не в том месте, не с тем мужчиной. И теперь она понятия не имеет, кто отец ее будущего ребенка: обаятельный миллиардер или известный адвокат. Одним словом, Бриджит Джонс в очень интересном положении.
Релиз:
Автор: sociolog_melvas
Качество: BDRip (источник: / Blu-ray / 1080p)
Формат: AVI
Видео: 720x304 (2.37:1), 23,976 fps, XviD build 65 ~1772 kbps avg, 0.34 bit/pixel
Аудио: #1 48 kHz, AC3 Dolby Digital, 3/2 (L,C,R,l,r) + LFE ch, ~384.00 kbps avg rus
Аудио: #2 48 kHz, AC3 Dolby Digital, 3/2 (L,C,R,l,r) + LFE ch, ~384.00 kbps avg eng
Размер: 2234.85 Mb (1/2 DVD)
Скачать: Семпл-

Кадры из фильма


-

Mi

Формат : AVI
Формат/Информация : Audio Video Interleave
Профиль формата : OpenDML
Размер файла : 2,18 Гбайт
Продолжительность : 2 ч. 2 м.
Общий поток : 2548 Кбит/сек
Название фильма : Бриджит Джонс 3 / Bridget Jones's Baby (2016) BDRip
Режиссёр : sociolog_melvas
Жанр : мелодрама, комедия
Программа кодирования : VirtualDubMod 1.5.10.2 (build 2540/release)
Правообладатель : HQCLUB
Примечание : 08.02.2017
Видео
Идентификатор : 0
Формат : MPEG-4 Visual
Профиль формата : Advanced Simple@L5
Параметр BVOP формата : 1
Параметр QPel формата : Нет
Параметр GMC формата : Без точки перехода
Параметр матрицы формата : Выборочная
Идентификатор кодека : XVID
Идентификатор кодека/Подсказка : XviD
Продолжительность : 2 ч. 2 м.
Битрейт : 1762 Кбит/сек
Ширина : 720 пикселей
Высота : 304 пикселя
Соотношение сторон : 2,35:1
Частота кадров : 23,976 кадра/сек
Цветовое пространство : YUV
Субдискретизация насыщенности : 4:2:0
Битовая глубина : 8 бит
Тип развёртки : Прогрессивная
Метод сжатия : С потерями
Бит/(Пиксели*Кадры) : 0.336
Размер потока : 1,51 Гбайт (69%)
Библиотека кодирования : XviD 65
Аудио #1
Идентификатор : 1
Формат : AC-3
Формат/Информация : Audio Coding 3
Расширение режима : CM (complete main)
Параметр Endianness формата : Big
Идентификатор кодека : 2000
Продолжительность : 2 ч. 2 м.
Вид битрейта : Постоянный
Битрейт : 384 Кбит/сек
Каналы : 6 каналов
Расположение каналов : Front: L C R, Side: L R, LFE
Частота : 48,0 КГц
Битовая глубина : 16 бит
Метод сжатия : С потерями
Размер потока : 337 Мбайт (15%)
Выравнивание : Разделение по промежуткам
Продолжительность промежутка : 42 мс. (1,00 видеокадр)
Время предзагрузки промежутка : 500 мс.
Аудио #2
Идентификатор : 2
Формат : AC-3
Формат/Информация : Audio Coding 3
Расширение режима : CM (complete main)
Параметр Endianness формата : Big
Идентификатор кодека : 2000
Продолжительность : 2 ч. 2 м.
Вид битрейта : Постоянный
Битрейт : 384 Кбит/сек
Каналы : 6 каналов
Расположение каналов : Front: L C R, Side: L R, LFE
Частота : 48,0 КГц
Битовая глубина : 16 бит
Метод сжатия : С потерями
Размер потока : 337 Мбайт (15%)
Выравнивание : Разделение по промежуткам
Продолжительность промежутка : 42 мс. (1,00 видеокадр)
Время предзагрузки промежутка : 500 мс.
-
[Profile]  [PM] 
Display posts:    
Reply to topic

Current time is: 16-Dec 10:48

All times are UTC + 2



You cannot post new topics in this forum
You cannot reply to topics in this forum
You cannot edit your posts in this forum
You cannot delete your posts in this forum
You cannot vote in polls in this forum
You cannot attach files in this forum
You cannot download files in this forum