Президент Обама: От первого лица / The 44th President-in his own words [2017, Документальный, HDTVRip 1080p]

Reply to topic
 
Author
Message

Atila ®

Gender: Unknown

Longevity: 7 years 6 months

Posts: 2513

Reputation: 0 [+] [-]

Atila · Post 10-Feb-2017 23:50

[Quote] 

Президент Обама: От первого лица / The 44th President-in his own words Год выпуска: 2017
Страна: США
Студия: History Chanel
Жанр: Документальный
Продолжительность: 01:21:01
Перевод: Профессиональный (дублированный)
Русские субтитры: нет
Описание: В двухчасовом документальном фильме бывший президент США Барак Обама расскажет о своем президентстве и достижениях, которые, как он надеется, принесли пользу стране. От Реформы здравоохранения и защиты пациентов до охоты на Осаму Бен Ладена. Обама поделится своими мыслями о том, какой была страна до его президентства, какая она сейчас, и как ему видится ее будущее.
Тип релиза: HDTVRip 1080p
Контейнер: MKV
Видео: 1920х1080 (16:9); 25.000 fps; 5499 Кбит/с
Аудио: Русский AC3, 2 ch, 192 Кбит/с
Релиз:
Сэмпл

MediaInfo

Формат                                   : MatroskaВерсия формата                           : Version 4 / Version 2Размер файла                             : 3,22 ГбайтПродолжительность                        : 1 ч. 21 м.Режим общего битрейта                    : ПеременныйОбщий поток                              : 5694 Кбит/секДата кодирования                         : UTC 2017-02-09 13:38:40Программа кодирования                    : mkvmerge v7.8.0 ('River Man') 32bit built on Mar 27 2015 16:18:02Библиотека кодирования                   : libebml v1.3.1 + libmatroska v1.4.2
ВидеоИдентификатор : 1Формат : MPEG VideoВерсия формата : Version 2Профиль формата : Main@HighПараметр BVOP формата : НетПараметр матрицы формата : По умолчаниюПараметр GOP формата : VariableИдентификатор кодека : V_MPEG2Идентификатор кодека/Информация : MPEG 1 or 2 VideoПродолжительность : 1 ч. 21 м.Вид битрейта : ПеременныйБитрейт : 5499 Кбит/секШирина : 1920 пикселейВысота : 1080 пикселейСоотношение сторон : 16:9Режим частоты кадров : ПостоянныйЧастота кадров : 25,000 кадров/секЦветовое пространство : YUVСубдискретизация насыщенности : 4:2:0Битовая глубина : 8 битТип развёртки : ПрогрессивнаяМетод сжатия : С потерямиБит/(Пиксели*Кадры) : 0.106Временной код первого кадра : 00:00:00:00Оригинал временного кода : Group of pictures headerGOP, открыто/закрыто : ОткрытоРазмер потока : 3,11 Гбайт (97%)Язык : RussianDefault : ДаForced : Нет
АудиоИдентификатор : 2Формат : AC-3Формат/Информация : Audio Coding 3Расширение режима : CM (complete main)Параметр Endianness формата : BigИдентификатор кодека : A_AC3Продолжительность : 1 ч. 21 м.Вид битрейта : ПостоянныйБитрейт : 192 Кбит/секКаналы : 2 каналаРасположение каналов : Front: L RЧастота : 48,0 КГцЧастота кадров : 31,250 кадров/сек (1536 spf)Битовая глубина : 16 битМетод сжатия : С потерямиРазмер потока : 111 Мбайт (3%)Язык : RussianDefault : ДаForced : Нет

Скриншоты


[Profile]  [PM] 
Display posts:    
Reply to topic

Current time is: 15-Dec 11:50

All times are UTC + 2



You cannot post new topics in this forum
You cannot reply to topics in this forum
You cannot edit your posts in this forum
You cannot delete your posts in this forum
You cannot vote in polls in this forum
You cannot attach files in this forum
You cannot download files in this forum