Два ствола / 2 Guns (Бальтасар Кормакур / Baltasar Kormákur) [2013, США, Боевик, триллер, драма, комедия, криминал, BDRip] AVO (Гаврилов) + Sub Rus (forced)

Reply to topic
 
Author
Message

Satyr ®

Gender: Unknown

Longevity: 10 years

Posts: 14656

Reputation: 54 [+] [-]

Satyr · Post 11-Feb-2017 12:05

[Quote] 

Два ствола / 2 Guns
Страна: США
Жанр: Боевик, триллер, драма, комедия, криминал
Год выпуска: 2013
Продолжительность: 01:49:19
Перевод: Авторский (одноголосый закадровый) Андрей Гаврилов
Cубтитры: Русские (форсированные, надписи) (внешние)
Оригинальная аудиодорожка: нет
Режиссер: Бальтасар Кормакур / Baltasar Kormákur
В ролях: Дензел Вашингтон, Марк Уолберг, Джеймс Марсден, Пола Пэттон, Билл Пэкстон, Эви Томпсон, Эдвард Джеймс Олмос, Фред Уорд, Мэтт Кук, Роберт Джон Бёрк, Лаки Джонсон, Патрик Фишлер, Грег Спролс, Дерек Солорсано, Эдгар Арреола, Кайл Расселл Клементс, Тим Белл, Тейт Флетчер, Эжур Парсонс, Джон МакКоннелл, Джек Ландри, Ричи Монтгомери, Эмбир Чилдерс, Роберт Ларривьер, Люси Фауст, Джордж Уилсон, Йоханс Майлс, Хесус мл., Дорис Моргадо, Сэмюэл Бака-Гарсия, Майкл Бисли, Кристофер Демпси, Билл Стинчкомб, Марк Адам, Дэвид Кенси, Кристал Миллер, Эмили Д. Хейли
Описание: Это история двух грабителей, которые на самом деле не те, кем кажутся. Один из них — агент из управления по борьбе с наркотиками, а другой — тайный агент разведки ВМС. Сами того не желая, они занимаются расследованием дел друг друга, а также воруют деньги у мафии. Через некоторое время героям придется украсть 50 миллионов долларов у ЦРУ.
Доп. информация:
Релиз от
Рип от MECHANICAL ENGINER - http://torrentsland.com.ua/forum/viewtopic.php?t=4626443
Сэмпл: http://multi-up.com/1140009
Качество видео: BDRip
Формат видео: AVI
Видео: XviD; 720x304 (2,35:1); 1441 Kbps; 23,976 fps; 0,275 bit/pixel
Аудио: AC3; 48 kHz, 448 Kbps; CBR; 6 ch

MediaInfo

Общее
Полное имя : 2.Guns.2013.BDRip.Gavrilov.lumpeN\2.Guns.2013.BDRip.Gavrilov.lumpeN.avi
Формат : AVI
Формат/Информация : Audio Video Interleave
Размер файла : 1,45 Гбайт
Продолжительность : 1 ч. 49 м.
Общий поток : 1898 Кбит/сек
Название фильма : lumpeN
Программа кодирования : VirtualDubMod 1.5.10.2 (build 2540/release)
Библиотека кодирования : VirtualDubMod build 2540/release
Видео
Идентификатор : 0
Формат : MPEG-4 Visual
Профиль формата : Advanced Simple@L5
Параметр BVOP формата : 1
Параметр QPel формата : Нет
Параметр GMC формата : Без точки перехода
Параметр матрицы формата : Выборочная
Идентификатор кодека : XVID
Идентификатор кодека/Подсказка : XviD
Продолжительность : 1 ч. 49 м.
Битрейт : 1441 Кбит/сек
Ширина : 720 пикселей
Высота : 304 пикселя
Соотношение сторон : 2,35:1
Частота кадров : 23,976 (23976/1000) кадра/сек
Цветовое пространство : YUV
Субдискретизация насыщенности : 4:2:0
Битовая глубина : 8 бит
Тип развёртки : Прогрессивная
Метод сжатия : С потерями
Бит/(Пиксели*Кадры) : 0.275
Размер потока : 1,10 Гбайт (76%)
Библиотека кодирования : XviD 65
Аудио
Идентификатор : 1
Формат : AC-3
Формат/Информация : Audio Coding 3
Расширение режима : CM (complete main)
Параметр Endianness формата : Big
Идентификатор кодека : 2000
Продолжительность : 1 ч. 49 м.
Вид битрейта : Постоянный
Битрейт : 448 Кбит/сек
Каналы : 6 каналов
Расположение каналов : Front: L C R, Side: L R, LFE
Частота : 48,0 КГц
Частота кадров : 31,250 кадров/сек (1536 spf)
Метод сжатия : С потерями
Размер потока : 350 Мбайт (24%)
Выравнивание : Разделение по промежуткам
Продолжительность промежутка : 42 мс. (1,00 видеокадр)
Время предзагрузки промежутка : 500 мс.
Заголовок : rus - Gavrilov
Общее
Полное имя : 2.Guns.2013.BDRip.Gavrilov.lumpeN\2.Guns.2013.BDRip.Gavrilov.lumpeN_Rus.For.srt
Формат : SubRip
Размер файла : 725 байт
Текст
Формат : SubRip
Метод сжатия : Без потерь

Интересные факты

Фильм снят по мотивам одноименного комикса.
Дэвид О. Расселл, Даг Лайман, Антуан Фукуа, Пьер Морель и Мартин Кэмпбелл рассматривались на место режиссера проекта.
На начальных стадиях создания фильма Винса Вона брали на роль Бобби, а Оуэна Уилсона — на роль Стига.
Эллен Помпео и Мариса Томей рассматривались на роль Деб.
В трейлере используется песня «Die by the Drop» группы The Dead Weather. Эта же песня ранее использовалась в трейлере к фильму Бальтасара Кормакура «Контрабанда» (2011), главную роль в котором исполнил также Марк Уолберг.
Когда в финальной сцене Бобби привозит красный Chevrolet Impala 1964-го года, набитый деньгами, и отдает агенту ЦРУ ключи от машины, Стиг стоит, опираясь на черный Dodge Challenger, а Бобби направляется от Шевроле к нему. После смены кадра Бобби и Стиг вместе идут от красного автомобиля.
Эрл говорит Папе, что он мог бы организовать нападение вертолетов Apache A-6. A-6 — это реактивный истребитель, а вертолет Apache обозначается как AH-64.
Когда Эрл играет в русскую рулетку с Бобби, патроны меняют свое положение на столе после смены кадра.
Когда агент ЦРУ убивает босса Бобби, его мертвое тело лежит рядом со столом. Несколькими кадрами позже тело лежит в дверях, ведущих в столовую.
Магазин рыболовных принадлежностей, где работает друг Стига и где он и Бобби встречаются после побега, очевидно, находится не в Техасе. По техасским законам неоновый знак пива на витрине запрещен.
Когда Бобби и Стиг въезжают в Техас из Мексики, они пересекают реку Рио-Гранде, которая течет справа налево относительно их движения. Но Рио-Гранде течет на восток вдоль этой границы, а поэтому должна течь слева направо, когда они идут на север.
Когда Бобби удерживает Куинса в его офисе, вооруженный помощник Куинса заходит внутрь. Американские военнослужащие, как правило, не носят подвешенное на ремне оружие, пребывая на базе.
В сцене, когда Бобби гонится за Стигом, который похитил Папи, состояние Форда Бобби меняется. После первого столкновения обе фары разбиты, а когда они пересекают реку, то правая фара снова целая. Однако, когда Бобби и Стиг сталкиваются, в конце погони обе фары снова разбиты.

Скриншот c названием фильма

Скриншоты

[Profile]  [PM] 
Display posts:    
Reply to topic

Current time is: 16-Dec 09:02

All times are UTC + 2



You cannot post new topics in this forum
You cannot reply to topics in this forum
You cannot edit your posts in this forum
You cannot delete your posts in this forum
You cannot vote in polls in this forum
You cannot attach files in this forum
You cannot download files in this forum