Табу / Taboo (Сезон 1, Серия 1-8 из 8) (Андерс Энгстрем, Кристоффер Нюхольм ) [2017 , Драма, приключения , HDTVRip 720p] [ AlexFilm , LostFilm , Jaskier , English] + [Subs Rus , Ukr ,ENG]

Reply to topic
 
Author
Message

Враг Нароода ®

Gender: Unknown

Longevity: 5 years 4 months

Posts: 391

Reputation: 1 [+] [-]

Враг Нароода · Post 11-Feb-2017 15:32

[Quote] 

--Табу / Taboo Сезон 1, Серия 1- 8 из 8-- --Год выпуска:2017
Выпущено:США , Великобритания , , ,Hardy, Son & Baker, Scott Free Productions
Жанр: Драма, приключения
Продолжительность: 000:55:00
Сезон:1
Серия: 1 - 8
Количество серий в сезоне: 8
Озвучка 1: Профессиональный многоголосый - AlexFilm -Русский
Озвучка 2: Профессиональный многоголосый - LostFilm -Русский
Озвучка 3: Профессиональный многоголосый - Jaskier -Русский
Озвучка 4: Профессиональный многоголосый - Английский - Оригинал
Субтитры: : Russian , Ukrainian , English -- В релизе отсутствует реклама --Официальный сайт
IMDB --Режиссеры: Андерс Энгстрем, Кристоффер Нюхольм --Сценаристы: Стивен Найт, Том Харди, Чипс Харди, Эмили Балу, Бен Херви--В ролях: Том Харди (Джеймс Кезайя Делэйни), Лео Билл (Уилтон), Майкл Келли (Дамбартон), Джонатан Прайс (Стюарт Стрэндж), Уна Чаплин (Зилфа Гири)
-- Британия, 1814 год. Джеймс Кезайя Делэйни вернулся в родной Лондон — город, где его давно считают мертвым. У Джеймса в кармане 14 добытых не самым честным путем бриллиантов, а в душе — желание найти и наказать убийц отца. Все, что Джеймсу осталось от родителя в наследство, — клочок земли да старый верный слуга. И если слуга мало интересует могущественную Британскую Ост-Индскую компанию в лице ее жадной верхушки, то участок земли, который за это время существенно вырос в цене, — очень даже. Влиятельный и коварный сэр Стюарт Стрэндж готов пойти на все, чтобы получить желаемое, вплоть до убийства Делэйни. Но в чем нельзя отказать главному герою сериала, так это в умении выживать. Если его не убила темная магия Африки, десятилетняя разлука с возлюбленной, схватка с медведем и проклятие золота ацтеков, то сэру Стрэнджу придется очень постараться. Недалек тот день, когда алчность сойдется в бою с безумием, но будет ли в этой схватке победитель?..
-- --Качество :HDTVRip 7200p
Формат: MKV
Видео кодек: H264
Видео: 3115Кбит/сек,1280х7200(16.9),в 25.000кадр/сек,AVC(Baseline@L3.1)(1Ref Frames)
Аудио Кодек:AC3
Аудио #1:AC3 , 384 Kbps, 48.0 KHz, 6 ch- AlexFilm -Русский
Аудио #2:AC3 , 384 Kbps, 48.0 KHz, 6 ch- LostFilm -Русский
Аудио #3:AC3 , 384 Kbps, 48.0 KHz, 6 ch-Jaskier-Русский
Аудио #4: AC3, 640 Kbps, 48.0 KHz,6 ch - - English - Оригинал--

Доп. информация:

Звуковая дорожка сделана путем наложения чистого голоса озвучивателей на центральный канал оригинальной дорожки. Качество идентично звуковой дорожке.
--

Список эпизодов сезона


01 1Эпизод 1
02 Эпизод 2
03 Эпизод 3
04 Эпизод 4
05 Эпизод 5
06 Эпизод 6
07 Эпизод 7
08 Эпизод 8
--

MediaInfo

Общее
Уникальный идентификатор : 185305791432472137790941246938085483788 (0x8B6898E5F42FE3FD81E28D9338BA650C)
Полное имя : C:\ПИРАТИЯ(PIRATIYA)\HDTV 720p\Табу (Taboo)\TABOО_217_S01_N.B_HDTV_ 720p_3xRus[AlexFilm_LostFilm_Jaskier]Eng\Taboo_S01E01_N.B_HDTV_720p_3xRus_Eng.mkv
Формат : Matroska
Версия формата : Version 4 / Version 2
Размер файла : 1,89 Гбайт
Продолжительность : 55 м. 1 с.
Режим общего битрейта : Переменный
Общий поток : 4911 Кбит/сек
Название фильма : Taboo_S01E01_N.B_HDTV_720p_3xRus_Eng
Дата кодирования : UTC 2017-02-15 06:12:37
Программа кодирования : mkvmerge v9.8.0 ('Kuglblids') 64bit
Библиотека кодирования : libebml v1.3.4 + libmatroska v1.4.5
Видео
Идентификатор : 1
Формат : AVC
Формат/Информация : Advanced Video Codec
Профиль формата : Baseline@L3.1
Параметр CABAC формата : Нет
Параметр ReFrames формата : 1 кадр
Параметр GOP формата : M=1, N=12
Идентификатор кодека : V_MPEG4/ISO/AVC
Продолжительность : 55 м. 1 с.
Вид битрейта : Переменный
Битрейт : 3115 Кбит/сек
Максимальный битрейт : 4500 Кбит/сек
Ширина : 1280 пикселей
Высота : 720 пикселей
Соотношение сторон : 16:9
Режим частоты кадров : Постоянный
Частота кадров : 25,000 кадров/сек
Частота кадров в оригинале : 24,000 кадра/сек
Цветовое пространство : YUV
Субдискретизация насыщенности : 4:2:0
Битовая глубина : 8 бит
Тип развёртки : Прогрессивная
Бит/(Пиксели*Кадры) : 0.135
Размер потока : 1,20 Гбайт (63%)
Заголовок : Taboo_S01E01_N.B_HDTV_720p_3xRus_Eng
Язык : Russian
Default : Да
Forced : Нет
Аудио #1
Идентификатор : 5
Формат : AC-3
Формат/Информация : Audio Coding 3
Расширение режима : CM (complete main)
Параметр Endianness формата : Big
Идентификатор кодека : A_AC3
Продолжительность : 55 м. 1 с.
Вид битрейта : Постоянный
Битрейт : 384 Кбит/сек
Каналы : 6 каналов
Расположение каналов : Front: L C R, Side: L R, LFE
Частота : 48,0 КГц
Частота кадров : 31,250 кадров/сек (1536 spf)
Битовая глубина : 16 бит
Метод сжатия : С потерями
Размер потока : 151 Мбайт (8%)
Заголовок : MVO AlexFilm @DD5.1 AC3, 384 Kbps, 48.0 KHz, 6 ch
Язык : Russian
Default : Да
Forced : Нет
Аудио #2
Идентификатор : 6
Формат : AC-3
Формат/Информация : Audio Coding 3
Расширение режима : CM (complete main)
Параметр Endianness формата : Big
Идентификатор кодека : A_AC3
Продолжительность : 55 м. 1 с.
Вид битрейта : Постоянный
Битрейт : 384 Кбит/сек
Каналы : 6 каналов
Расположение каналов : Front: L C R, Side: L R, LFE
Частота : 48,0 КГц
Частота кадров : 31,250 кадров/сек (1536 spf)
Битовая глубина : 16 бит
Метод сжатия : С потерями
Размер потока : 151 Мбайт (8%)
Заголовок : MVO LostFilm @DD5.1 AC3, 384 Kbps, 48.0 KHz, 6 ch
Язык : Russian
Default : Нет
Forced : Нет
Аудио #3
Идентификатор : 7
Формат : AC-3
Формат/Информация : Audio Coding 3
Расширение режима : CM (complete main)
Параметр Endianness формата : Big
Идентификатор кодека : A_AC3
Продолжительность : 55 м. 1 с.
Вид битрейта : Постоянный
Битрейт : 384 Кбит/сек
Каналы : 6 каналов
Расположение каналов : Front: L C R, Side: L R, LFE
Частота : 48,0 КГц
Частота кадров : 31,250 кадров/сек (1536 spf)
Битовая глубина : 16 бит
Метод сжатия : С потерями
Размер потока : 151 Мбайт (8%)
Заголовок : MVO Jaskier @DD5.1 AC3, 384 Kbps, 48.0 KHz, 6 ch
Язык : Russian
Default : Нет
Forced : Нет
Аудио #4
Идентификатор : 8
Формат : AC-3
Формат/Информация : Audio Coding 3
Расширение режима : CM (complete main)
Параметр Endianness формата : Big
Идентификатор кодека : A_AC3
Продолжительность : 55 м. 1 с.
Вид битрейта : Постоянный
Битрейт : 640 Кбит/сек
Каналы : 6 каналов
Расположение каналов : Front: L C R, Side: L R, LFE
Частота : 48,0 КГц
Частота кадров : 31,250 кадров/сек (1536 spf)
Битовая глубина : 16 бит
Метод сжатия : С потерями
Размер потока : 252 Мбайт (13%)
Заголовок : Original@DD5.1 AC3 ,640 Kbps, 48.0 KHz, 6 ch
Язык : English
Default : Нет
Forced : Нет
Текст #1
Идентификатор : 2
Формат : UTF-8
Идентификатор кодека : S_TEXT/UTF8
Идентификатор кодека/Информация : UTF-8 Plain Text
Продолжительность : 51 м. 38 с.
Битрейт : 95 бит/сек
Count of elements : 560
Размер потока : 36,1 Кбайт (0%)
Заголовок : Rus
Язык : Russian
Default : Да
Forced : Нет
Текст #2
Идентификатор : 3
Формат : UTF-8
Идентификатор кодека : S_TEXT/UTF8
Идентификатор кодека/Информация : UTF-8 Plain Text
Продолжительность : 51 м. 23 с.
Битрейт : 84 бит/сек
Count of elements : 548
Размер потока : 32,0 Кбайт (0%)
Заголовок : Ukr
Язык : Ukrainian
Default : Нет
Forced : Нет
Текст #3
Идентификатор : 4
Формат : UTF-8
Идентификатор кодека : S_TEXT/UTF8
Идентификатор кодека/Информация : UTF-8 Plain Text
Продолжительность : 54 м. 4 с.
Битрейт : 53 бит/сек
Count of elements : 625
Размер потока : 21,3 Кбайт (0%)
Заголовок : Original
Язык : English
Default : Нет
Forced : Нет
Меню
00:00:00.000 : en:Глава 01 / en:Глава 01 / en:Глава 01 / en:Глава 01 / en:Глава 01 / en:Глава 01 / en:Глава 01 / en:Глава 01
--

Скриншоты

-- --

Как закачать отдельный файл

1. Открыть торрент
2. Снять галки с тех файлов торрента, которые мы не хотим закачивать. Оставляем только на нужных нам файлах (файле).
3. Нажать О.К.
В клиенте utorrent
Инструкция
1) Открыть торрент

2) Снять галки с тех файлов торрента, которые мы не хотим закачивать:
* либо вручную, снимая с каждого файла галку( скрин №1)
* либо, нажав кнопку "Снять метки (Select None)", сняв сразу со всех файлов(скрин №2)
№1

№2

Оставляем только на нужных нам файлах (файле).

3)Нажать О.К
-- -- --Внимание!!! 04.03. 2017. РАЗДАЧА ОБНОВЛЕНА. ФИНАЛ СЕЗОНА. ОБНОВИТЕ ТОРЕНТ ФАЙЛ.ПРИЯТНОГО ПРОСМОТРА . --Релиз от: Nikolai.Baranov & PIRATIYA -- -- -- --
[Profile]  [PM] 
Display posts:    
Reply to topic

Current time is: 28-Jan 05:11

All times are UTC + 2



You cannot post new topics in this forum
You cannot reply to topics in this forum
You cannot edit your posts in this forum
You cannot delete your posts in this forum
You cannot vote in polls in this forum
You cannot attach files in this forum
You cannot download files in this forum