Срок / Livstid (Юльф Квенслер / Ulf Kvensler) [2012, Швеция, триллер, драма, BDRip 720p] MVO + Sub Eng + Original Swe

Reply to topic
 
Author
Message

Faust ®

Gender: Unknown

Longevity: 8 years 2 months

Posts: 13739

Reputation: 0 [+] [-]

Faust · Post 11-Feb-2017 20:16

[Quote] 

Срок / Livstid
Страна: Швеция
Студия:Yellow Bird Films, Degeto Film, TV4 Nordisk Television
Жанр: триллер, драма
Год выпуска: 2012
Продолжительность: 01:28:31--Перевод: Профессиональный (многоголосый закадровый)
Cубтитры: английские
Оригинальная аудио дорожка: шведская--Режиссер: Юльф Квенслер / Ulf Kvensler--В ролях: Малин Крепин, Бьёрн Чьелльман, Лейф Андре, Кайса Эрнст, Эрик Йоханссон, Феликс Энгстрем, Кандиду Ричард Ульфзэтер, Муа Гаммель, Жозефин Борнебуш, Мария Кулле--Описание: Дэвид Линдхольм, самый известный полицейский Швеции, обнаружен застреленным в собственной постели. Теперь его жене Джулии грозит пожизненное заключение за убийство, а его четырехлетний сын пропал. Однако, Анника уверена, что полицейского убила совсем другая женщина…--Доп. информация: Навигация по главам с BDRemux.--Сэмпл: http://sendfile.su/1305530--Тип релиза: BDRip 720p
Контейнер: MKV
Видео кодек: H.264
Аудио кодек: DTS, AC-3
Видео: MPEG4/AVC, 1280x720p, 16:9, 25.000 FPS, 4553 kb/s
Аудио 1: RUS / MVO, AC-3, 48.0 kHz, 2.0, 192 kb/s | закадровый
Аудио 2: SWE / нет, DTS, 48.0 kHz, 5.1, 1509 kb/s | оригинал
Формат субтитров: softsub (SRT)
Релиз:

MediaInfo

x264
x264 [info]: profile High, level 4.1,
x264 [info]: frame I:1354 Avg QP:13.62 size:109265
x264 [info]: frame P:29596 Avg QP:14.86 size: 42846
x264 [info]: frame B:101841 Avg QP:16.26 size: 16588
Формат : Matroska
Версия формата : Version 2
Размер файла : 3,95 Гбайт
Продолжительность : 1 ч. 28 м.
Общий поток : 6381 Кбит/сек
Название фильма : Livstid.2012 - Rip from Rutracker
Дата кодирования : UTC 2017-02-04 07:30:20
Программа кодирования : mkvmerge v7.6.0 ('Garden of Dreams') 32bit built on Feb 11 2015 00:18:47
Библиотека кодирования : libebml v1.3.1 + libmatroska v1.4.2
Видео
Идентификатор : 1
Формат : AVC
Формат/Информация : Advanced Video Codec
Профиль формата : High@L4.1
Параметр CABAC формата : Да
Параметр ReFrames формата : 9 кадров
Идентификатор кодека : V_MPEG4/ISO/AVC
Продолжительность : 1 ч. 28 м.
Битрейт : 4553 Кбит/сек
Ширина : 1280 пикселей
Высота : 720 пикселей
Соотношение сторон : 16:9
Режим частоты кадров : Постоянный
Частота кадров : 25,000 кадров/сек
Цветовое пространство : YUV
Субдискретизация насыщенности : 4:2:0
Битовая глубина : 8 бит
Тип развёртки : Прогрессивная
Бит/(Пиксели*Кадры) : 0.198
Размер потока : 2,82 Гбайт (71%)
Заголовок : Livstid.2012 - Rip from Rutracker
Библиотека кодирования : x264 core 148 r2744 b97ae06
Настройки программы : cabac=1 / ref=9 / deblock=1:-3:-3 / analyse=0x3:0x113 / me=umh / subme=10 / psy=1 / psy_rd=1.10:0.00 / mixed_ref=1 / me_range=24 / chroma_me=1 / trellis=2 / 8x8dct=1 / cqm=0 / deadzone=21,11 / fast_pskip=1 / chroma_qp_offset=-2 / threads=6 / lookahead_threads=1 / sliced_threads=0 / nr=0 / decimate=0 / interlaced=0 / bluray_compat=0 / constrained_intra=0 / bframes=9 / b_pyramid=2 / b_adapt=2 / b_bias=0 / direct=1 / weightb=1 / open_gop=0 / weightp=2 / keyint=250 / keyint_min=23 / scenecut=40 / intra_refresh=0 / rc_lookahead=60 / rc=crf / mbtree=0 / crf=16.1 / qcomp=0.67 / qpmin=0 / qpmax=69 / qpstep=4 / vbv_maxrate=62500 / vbv_bufsize=78125 / crf_max=0.0 / nal_hrd=none / filler=0 / ip_ratio=1.30 / pb_ratio=1.20 / aq=1:0.72
Default : Да
Forced : Нет
Statistics Tags Issue : mkvmerge v9.7.1 ('Pandemonium') 64bit 2017-02-03 00:11:52 / mkvmerge v7.6.0 ('Garden of Dreams') 32bit built on Feb 11 2015 00:18:47 2017-02-04 07:30:20
FromStats_BitRate : 4677024
FromStats_Duration : 01:28:31.640000000
FromStats_FrameCount : 132791
FromStats_StreamSize : 3105333993
Аудио #1
Идентификатор : 2
Формат : AC-3
Формат/Информация : Audio Coding 3
Расширение режима : CM (complete main)
Параметр Endianness формата : Big
Идентификатор кодека : A_AC3
Продолжительность : 1 ч. 28 м.
Вид битрейта : Постоянный
Битрейт : 192 Кбит/сек
Каналы : 2 канала
Расположение каналов : Front: L R
Частота : 48,0 КГц
Частота кадров : 31,250 кадров/сек (1536 spf)
Битовая глубина : 16 бит
Метод сжатия : С потерями
Размер потока : 122 Мбайт (3%)
Заголовок : закадроваый
Язык : Russian
Default : Да
Forced : Нет
Аудио #2
Идентификатор : 3
Формат : DTS
Формат/Информация : Digital Theater Systems
Режим : 16
Параметр Endianness формата : Big
Идентификатор кодека : A_DTS
Продолжительность : 1 ч. 28 м.
Вид битрейта : Постоянный
Битрейт : 1509 Кбит/сек
Каналы : 6 каналов
Расположение каналов : Front: L C R, Side: L R, LFE
Частота : 48,0 КГц
Частота кадров : 93,750 кадра/сек (512 spf)
Битовая глубина : 24 бит
Метод сжатия : С потерями
Размер потока : 955 Мбайт (24%)
Заголовок : оригинал
Язык : Swedish
Default : Нет
Forced : Нет
Текст
Идентификатор : 4
Формат : UTF-8
Идентификатор кодека : S_TEXT/UTF8
Идентификатор кодека/Информация : UTF-8 Plain Text
Заголовок : английские
Язык : English
Default : Нет
Forced : Нет
Меню
00:00:00.000 : :Chapter 01
00:10:17.000 : :Chapter 02
00:20:10.600 : :Chapter 03
00:28:59.440 : :Chapter 04
00:39:40.000 : :Chapter 05
00:49:58.239 : :Chapter 06
01:00:00.280 : :Chapter 07
01:10:00.000 : :Chapter 08
01:20:00.320 : :Chapter 09
01:26:51.040 : :Chapter 10

Скриншоты






Сравнение с исходником

http://screenshotcomparison.com/comparison/199391/picture:0
[Profile]  [PM] 
Display posts:    
Reply to topic

Current time is: 15-Dec 03:56

All times are UTC + 2



You cannot post new topics in this forum
You cannot reply to topics in this forum
You cannot edit your posts in this forum
You cannot delete your posts in this forum
You cannot vote in polls in this forum
You cannot attach files in this forum
You cannot download files in this forum