Между ангелом и бесом / Les anges gardiens (Жан-Мари Пуаре / Jean-Marie Poiré) [1995, Франция, фэнтези, мелодрама, комедия, WEB-DL 1080p] 4x MVO (РТР, 5-й канал, Twister/R5, Союз-Видео) + DVO (ОРТ) + 2x Ukr + Original Fre + Sub Rus, Fre, Eng

Reply to topic
 
Author
Message

Faust ®

Gender: Unknown

Longevity: 8 years 2 months

Posts: 13748

Reputation: 0 [+] [-]

Faust · Post 11-Feb-2017 20:17

[Quote] 

Между ангелом и бесом / Les anges gardiens- Год выпуска: 1995
Выпущено: Франция
Жанр: фэнтези, мелодрама, комедия
Продолжительность: 01:47:02
Перевод: Профессиональный (двухголосый, закадровый) ОРТ
+ Профессиональный (многоголосый, закадровый) РТР
+ Профессиональный (многоголосый, закадровый) 5-й канал
+ Профессиональный (многоголосый, закадровый) Twister, R5
+ Профессиональный (многоголосый, закадровый) Союз-Видео
Оригинальная звуковая дорожка: French
Субтитры: Russian (R5), French, English-Режиссер: Жан-Мари Пуаре / Jean-Marie Poiré
В ролях: Жерар Депардье, Кристиан Клавье, Ева Гримальди, Ив Ранье, Александр Эксимо, Лоран Жандрон, Ева Герцигова, Жан Шампьон, Анна Гейлор, Натали Сежан
О фильме: Герою Жерара Депардье, преуспевающему владельцу кабарэ со стриптизом, звонит из Гонконга друг из бурного прошлого, в котором их связывает долгом солдатской дружбы своевременно брошенная граната. Он просит его взять 20 процентов от суммы в 30 млн долларов и семилетнего мальчика-китайца с тем, чтобы доставить к матери в Париж. Договорить друг не успевает - его размазывают по стене грузовиком, гонящиеся за ним местные мафиози.
Главный герой вылетает в Гонконг, находит мальчика, и теперь уже за ним начинается бешеная охота. Он ухитряется получить деньги в банке и вывезти мальчика при помощи священника, сопровождающего в приют трудновоспитуемых детишек. Деньги же подкладывает доброму католику в ежедневник с изображением Св. Екатерины. Боевые действия перемещаются на территорию Франции.
Релиз:
Источник: Amazon
Тип релиза: WEB-DL 1080p
Контейнер: MKV
Видео: 1920x816 at 25.000 fps, x264@L4, ~12274 kbps avg
Аудио #01: Russian: 48 kHz, AC3, 2/0 (L,R) ch, ~192.00 kbps avg |Двухголосый закадровый, ОРТ|
Аудио #02: Russian: 48 kHz, AC3, 2/0 (L,R) ch, ~192.00 kbps avg |Многоголосый закадровый, РТР|
Аудио #03: Russian: 48 kHz, AC3, 2/0 (L,R) ch, ~192.00 kbps avg |Многоголосый закадровый, 5 канал|
Аудио #04: Russian: 48 kHz, AC3, 2/0 (L,R) ch, ~192.00 kbps avg |Многоголосый закадровый, Twister, R5|
Аудио #05: Russian: 48 kHz, AC3, 2/0 (L,R) ch, ~192.00 kbps avg |Многоголосый закадровый, Союз Видео|
Аудио #06: Ukrainian: 48 kHz, AC3, 2/0 (L,R) ch, ~192.00 kbps avg |Многоголосый закадровый, 2+2|
Аудио #07: Ukrainian: 48 kHz, AC3, 2/0 (L,R) ch, ~192.00 kbps avg |Многоголосый закадровый, Enter-фільм|
Аудио #08: French: 48 kHz, AC3, 3/2 (L,C,R,l,r) + LFE ch, ~448.00 kbps avg |DVD R2|
Семпл-

Кадры из фильма


-

mInfo

Формат : Matroska
Версия формата : Version 4 / Version 2
Размер файла : 10,5 Гбайт
Продолжительность : 1 ч. 47 м.
Режим общего битрейта : Переменный
Общий поток : 14,1 Мбит/сек
Название фильма : Release by spartanec163
Дата кодирования : UTC 2017-01-31 02:07:10
Программа кодирования : mkvmerge v8.3.0 ('Over the Horizon') 64bit
Библиотека кодирования : libebml v1.3.1 + libmatroska v1.4.2
DURATION : 01:47:01.792000000
NUMBER_OF_FRAMES : 200681
NUMBER_OF_BYTES : 154123008
_STATISTICS_WRITING_APP : mkvmerge v8.3.0 ('Over the Horizon') 64bit
_STATISTICS_WRITING_DATE_UTC : 2017-01-31 02:07:10
_STATISTICS_TAGS : BPS DURATION NUMBER_OF_FRAMES NUMBER_OF_BYTES
Видео
Идентификатор : 1
Формат : AVC
Формат/Информация : Advanced Video Codec
Профиль формата : High@L4.0
Параметр CABAC формата : Да
Параметр ReFrames формата : 4 кадра
Идентификатор кодека : V_MPEG4/ISO/AVC
Продолжительность : 1 ч. 47 м.
Вид битрейта : Переменный
Битрейт : 12,0 Мбит/сек
Максимальный битрейт : 15,0 Мбит/сек
Ширина : 1920 пикселей
Высота : 816 пикселей
Соотношение сторон : 2,35:1
Режим частоты кадров : Постоянный
Частота кадров : 25,000 кадров/сек
Цветовое пространство : YUV
Субдискретизация насыщенности : 4:2:0
Битовая глубина : 8 бит
Тип развёртки : Прогрессивная
Бит/(Пиксели*Кадры) : 0.306
Размер потока : 8,97 Гбайт (85%)
Заголовок : WEB-DL 1080p (Amazon)
Библиотека кодирования : x264 core 148 r2623 d5b2374
Настройки программы : cabac=1 / ref=4 / deblock=1:-1:-1 / analyse=0x3:0x133 / me=umh / subme=9 / psy=1 / psy_rd=1.00:0.15 / mixed_ref=1 / me_range=24 / chroma_me=1 / trellis=2 / 8x8dct=1 / cqm=0 / deadzone=21,11 / fast_pskip=1 / chroma_qp_offset=-3 / threads=25 / lookahead_threads=4 / sliced_threads=0 / nr=150 / decimate=1 / interlaced=0 / bluray_compat=0 / constrained_intra=0 / bframes=8 / b_pyramid=2 / b_adapt=2 / b_bias=0 / direct=3 / weightb=1 / open_gop=0 / weightp=2 / keyint=125 / keyint_min=63 / scenecut=0 / intra_refresh=0 / rc_lookahead=125 / rc=crf / mbtree=1 / crf=18.0 / qcomp=0.60 / qpmin=0 / qpmax=69 / qpstep=4 / vbv_maxrate=15000 / vbv_bufsize=31250 / crf_max=0.0 / nal_hrd=vbr / filler=0 / ip_ratio=1.40 / aq=3:1.00
Язык : French
Default : Да
Forced : Нет
Основные цвета : BT.709
Характеристики трансфера : BT.709
Коэффициенты матрицы : BT.709
colour_range : Limited
Аудио #1
Идентификатор : 2
Формат : AC-3
Формат/Информация : Audio Coding 3
Расширение режима : CM (complete main)
Параметр Endianness формата : Big
Идентификатор кодека : A_AC3
Продолжительность : 1 ч. 47 м.
Вид битрейта : Постоянный
Битрейт : 192 Кбит/сек
Каналы : 2 канала
Расположение каналов : Front: L R
Частота : 48,0 КГц
Битовая глубина : 16 бит
Метод сжатия : С потерями
Размер потока : 147 Мбайт (1%)
Заголовок : AC3 2.0 192Kbps (Профессиональный, двухголосый - ОРТ)
Язык : Russian
Default : Да
Forced : Нет
Аудио #2
Идентификатор : 3
Формат : AC-3
Формат/Информация : Audio Coding 3
Расширение режима : CM (complete main)
Параметр Endianness формата : Big
Идентификатор кодека : A_AC3
Продолжительность : 1 ч. 47 м.
Вид битрейта : Постоянный
Битрейт : 192 Кбит/сек
Каналы : 2 канала
Расположение каналов : Front: L R
Частота : 48,0 КГц
Битовая глубина : 16 бит
Метод сжатия : С потерями
Размер потока : 147 Мбайт (1%)
Заголовок : AC3 2.0 192Kbps (Профессиональный, многоголосый - РТР)
Язык : Russian
Default : Нет
Forced : Нет
Аудио #3
Идентификатор : 4
Формат : AC-3
Формат/Информация : Audio Coding 3
Расширение режима : CM (complete main)
Параметр Endianness формата : Big
Идентификатор кодека : A_AC3
Продолжительность : 1 ч. 47 м.
Вид битрейта : Постоянный
Битрейт : 192 Кбит/сек
Каналы : 2 канала
Расположение каналов : Front: L R
Частота : 48,0 КГц
Битовая глубина : 16 бит
Метод сжатия : С потерями
Размер потока : 147 Мбайт (1%)
Заголовок : AC3 2.0 192Kbps (Профессиональный, многоголосый - 5 канал)
Язык : Russian
Default : Нет
Forced : Нет
Аудио #4
Идентификатор : 5
Формат : AC-3
Формат/Информация : Audio Coding 3
Расширение режима : CM (complete main)
Параметр Endianness формата : Big
Идентификатор кодека : A_AC3
Продолжительность : 1 ч. 47 м.
Вид битрейта : Постоянный
Битрейт : 192 Кбит/сек
Каналы : 2 канала
Расположение каналов : Front: L R
Частота : 48,0 КГц
Битовая глубина : 16 бит
Метод сжатия : С потерями
Размер потока : 147 Мбайт (1%)
Заголовок : AC3 2.0 192Kbps (Профессиональный, многоголосый - Twister, R5)
Язык : Russian
Default : Нет
Forced : Нет
Аудио #5
Идентификатор : 6
Формат : AC-3
Формат/Информация : Audio Coding 3
Расширение режима : CM (complete main)
Параметр Endianness формата : Big
Идентификатор кодека : A_AC3
Продолжительность : 1 ч. 47 м.
Вид битрейта : Постоянный
Битрейт : 192 Кбит/сек
Каналы : 2 канала
Расположение каналов : Front: L R
Частота : 48,0 КГц
Битовая глубина : 16 бит
Метод сжатия : С потерями
Размер потока : 147 Мбайт (1%)
Заголовок : AC3 2.0 192Kbps (Профессиональный, многоголосый - Союз Видео)
Язык : Russian
Default : Нет
Forced : Нет
Аудио #6
Идентификатор : 7
Формат : AC-3
Формат/Информация : Audio Coding 3
Расширение режима : CM (complete main)
Параметр Endianness формата : Big
Идентификатор кодека : A_AC3
Продолжительность : 1 ч. 47 м.
Вид битрейта : Постоянный
Битрейт : 192 Кбит/сек
Каналы : 2 канала
Расположение каналов : Front: L R
Частота : 48,0 КГц
Битовая глубина : 16 бит
Метод сжатия : С потерями
Размер потока : 147 Мбайт (1%)
Заголовок : AC3 2.0 192Kbps (Профессиональный, многоголосый - 2+2)
Язык : Ukrainian
Default : Нет
Forced : Нет
Аудио #7
Идентификатор : 8
Формат : AC-3
Формат/Информация : Audio Coding 3
Расширение режима : CM (complete main)
Параметр Endianness формата : Big
Идентификатор кодека : A_AC3
Продолжительность : 1 ч. 47 м.
Вид битрейта : Постоянный
Битрейт : 192 Кбит/сек
Каналы : 2 канала
Расположение каналов : Front: L R
Частота : 48,0 КГц
Битовая глубина : 16 бит
Метод сжатия : С потерями
Размер потока : 147 Мбайт (1%)
Заголовок : AC3 2.0 192Kbps (Профессиональный, многоголосый - Enter-фільм)
Язык : Ukrainian
Default : Нет
Forced : Нет
Аудио #8
Идентификатор : 9
Формат : AC-3
Формат/Информация : Audio Coding 3
Расширение режима : CM (complete main)
Параметр Endianness формата : Big
Идентификатор кодека : A_AC3
Продолжительность : 1 ч. 47 м.
Вид битрейта : Постоянный
Битрейт : 448 Кбит/сек
Каналы : 6 каналов
Расположение каналов : Front: L C R, Side: L R, LFE
Частота : 48,0 КГц
Битовая глубина : 16 бит
Метод сжатия : С потерями
Размер потока : 343 Мбайт (3%)
Заголовок : AC3 5.1 448Kbps (Оригинал)
Язык : French
Default : Нет
Forced : Нет
Текст #1
Идентификатор : 10
Формат : UTF-8
Идентификатор кодека : S_TEXT/UTF8
Идентификатор кодека/Информация : UTF-8 Plain Text
Язык : Russian
Default : Нет
Forced : Нет
Текст #2
Идентификатор : 11
Формат : UTF-8
Идентификатор кодека : S_TEXT/UTF8
Идентификатор кодека/Информация : UTF-8 Plain Text
Язык : English
Default : Нет
Forced : Нет
Текст #3
Идентификатор : 12
Формат : UTF-8
Идентификатор кодека : S_TEXT/UTF8
Идентификатор кодека/Информация : UTF-8 Plain Text
Язык : French
Default : Нет
Forced : Нет
Меню
00:00:00.000 : fr:Le voleur
00:02:25.840 : fr:GÃnÃrique de dÃbut
00:05:32.400 : fr:Ma poule
00:08:46.000 : fr:Père Tarain
00:11:24.080 : fr:Le gosse
00:13:40.200 : fr:Poursuite dans Hong-Kong
00:16:59.080 : fr:Un petit service
00:24:03.680 : fr:Les bons de caisse
00:29:00.400 : fr:Embarquement immÃdiat
00:32:56.040 : fr:Retour en première
00:42:49.680 : fr:VÃrità et mensonges
00:49:46.440 : fr:La bonne conscience
00:52:47.960 : fr:Vade retro Satanas
00:59:20.560 : fr:Un curà dans le bastringue
01:04:31.720 : fr:Les triades attaquent
01:07:59.280 : fr:Un pretre extraordinaire
01:14:04.160 : fr:Chez la famille D'HervÃ
01:19:01.400 : fr:L'enlèvement
01:21:46.920 : fr:Schnoufe et compagnie
01:26:44.560 : fr:Les anges gardiens
01:31:55.160 : fr:Lily Wang
01:36:17.720 : fr:Chinese connection
01:39:41.000 : fr:Epilogue
01:42:01.760 : fr:GÃnÃrique de fin

-
* Добавлены и подписаны оригинальные главы (French WEB-DL).
* За исходные дорожки: ОРТ спасибо BORISIMMORTAL (рутрекер), РТР - pcad45 и zim2001 (рутрекер), 5 канал - xfiles (рутрекер), Союз Видео - k2400 с форума R7 , 2+2, Enter-фільм - hurtom (karvai0, Arsenfpu).
* За исходную вебку спасибо maksnew.
[Profile]  [PM] 
Display posts:    
Reply to topic

Current time is: 15-Dec 12:18

All times are UTC + 2



You cannot post new topics in this forum
You cannot reply to topics in this forum
You cannot edit your posts in this forum
You cannot delete your posts in this forum
You cannot vote in polls in this forum
You cannot attach files in this forum
You cannot download files in this forum