Недотёпы / Fuzz (Ричард А. Колла / Richard A. Colla) [1972, США, боевик, триллер, драма, комедия, криминал, детекти, BDRemux 1080p] MVO (Image Art) + AVO (Ю. Сербин) + Original Eng

Reply to topic
 
Author
Message

Faust ®

Gender: Unknown

Longevity: 8 years 2 months

Posts: 13748

Reputation: 0 [+] [-]

Faust · Post 11-Feb-2017 20:17

[Quote] 

Недотёпы / Fuzz
Страна: США
Студия: Filmways Pictures, Javelin Pictures
Жанр: боевик, триллер, драма, комедия, криминал, детекти
Год выпуска: 1972
Продолжительность: 01:32:54
Перевод 1: Профессиональный (многоголосый закадровый) Image Art
Перевод 2: Авторский (одноголосый закадровый) Ю. Сербин
Cубтитры: нет
Оригинальная аудиодорожка: английский
Режиссер: Ричард А. Колла / Richard A. Colla
В ролях: Бёрт Рейнолдс, Джек Уэстон, Том Скерритт, Рэкел Уэлч, Джеймс МакИчин, Стив Инат, Дэн Фрейзер, Берт Ремсен, Стюарт Мосс, Х. Бенни Марковиц и др.
Описание: Фильм о буднях захолустного полицейского участка и его бестолковых полицейских. Сюжет состоит из поисков таинственного террориста, орудующего бомбами и убивающего местных официальных лиц.
II Сэмпл II IMDB II
Тип релиза: BDRemux 1080p (Fuzz.1972.1080p.BluRay.REMUX.AVC.DTS-HD.MA.2.0-EPSiLON)
Контейнер: MKV
Видео: AVC / 1920x1080 / 16:9 / 23.976fps / 24900Kbps / High@L4.1
Аудио 1: AC3 / 48.0 KHz / 2ch. / 192kbps / Rus / MVO / Image Art
Аудио 2: AC3 / 48.0 KHz / 2ch. / 192kbps / Rus / AVO / Ю. Сербин
Аудио 3: DTS-HD MA / 48.0 KHz / 2ch / 1536kbps / 16bit (DTS Core 48.0 KHz / 2ch / 1509kbps / 16bit) Eng
Аудио 4: AC3 / 48.0 KHz / 2ch. / 256kbps / Eng / Commentary by Cast & Crew

MediaInfo

Общее
Уникальный идентификатор : 223582571217003243341909810135242471747 (0xA8346FD859A5AD58BFCFE731F9417943)
Полное имя : G:\!!!_torrent\Fuzz.1972.BDRemux.1080p_by_vedigo.mkv
Формат : Matroska
Версия формата : Version 4 / Version 2
Размер файла : 17,6 Гбайт
Продолжительность : 1 ч. 32 м.
Режим общего битрейта : Переменный
Общий поток : 27,1 Мбит/сек
Дата кодирования : UTC 2017-02-03 00:12:49
Программа кодирования : mkvmerge v9.8.0 ('Kuglblids') 64bit
Библиотека кодирования : libebml v1.3.4 + libmatroska v1.4.5
Видео
Идентификатор : 1
Формат : AVC
Формат/Информация : Advanced Video Codec
Профиль формата : High@L4.1
Параметр CABAC формата : Да
Параметр ReFrames формата : 4 кадра
Идентификатор кодека : V_MPEG4/ISO/AVC
Продолжительность : 1 ч. 32 м.
Вид битрейта : Переменный
Битрейт : 24,9 Мбит/сек
Максимальный битрейт : 35,0 Мбит/сек
Ширина : 1920 пикселей
Высота : 1080 пикселей
Соотношение сторон : 16:9
Режим частоты кадров : Постоянный
Частота кадров : 23,976 (24000/1001) кадра/сек
Стандарт вещания : NTSC
Цветовое пространство : YUV
Субдискретизация насыщенности : 4:2:0
Битовая глубина : 8 бит
Тип развёртки : Прогрессивная
Бит/(Пиксели*Кадры) : 0.501
Размер потока : 16,2 Гбайт (92%)
Заголовок : Fuzz.1972.BDRemux.1080p_by_vedigo
Default : Да
Forced : Нет
Цветовой диапазон : Limited
Основные цвета : BT.709
Характеристики трансфера : BT.709
Коэффициенты матрицы : BT.709
Аудио #1
Идентификатор : 2
Формат : AC-3
Формат/Информация : Audio Coding 3
Расширение режима : CM (complete main)
Параметр Endianness формата : Big
Идентификатор кодека : A_AC3
Продолжительность : 1 ч. 32 м.
Вид битрейта : Постоянный
Битрейт : 192 Кбит/сек
Каналы : 2 канала
Расположение каналов : Front: L R
Частота : 48,0 КГц
Частота кадров : 31,250 кадров/сек (1536 spf)
Битовая глубина : 16 бит
Метод сжатия : С потерями
Размер потока : 128 Мбайт (1%)
Заголовок : MVO @ Image Art
Язык : Russian
Default : Да
Forced : Нет
Аудио #2
Идентификатор : 3
Формат : AC-3
Формат/Информация : Audio Coding 3
Расширение режима : CM (complete main)
Параметр Endianness формата : Big
Идентификатор кодека : A_AC3
Продолжительность : 1 ч. 32 м.
Вид битрейта : Постоянный
Битрейт : 192 Кбит/сек
Каналы : 2 канала
Расположение каналов : Front: L R
Частота : 48,0 КГц
Частота кадров : 31,250 кадров/сек (1536 spf)
Битовая глубина : 16 бит
Метод сжатия : С потерями
Размер потока : 128 Мбайт (1%)
Заголовок : AVO @ Ю. Сербин
Язык : Russian
Default : Нет
Forced : Нет
Аудио #3
Идентификатор : 4
Формат : DTS
Формат/Информация : Digital Theater Systems
Профиль формата : MA / Core
Режим : 16
Параметр Endianness формата : Big
Идентификатор кодека : A_DTS
Продолжительность : 1 ч. 32 м.
Вид битрейта : Переменный / Постоянный
Битрейт : 1536 Кбит/сек / 1509 Кбит/сек
Каналы : 2 канала
Расположение каналов : Front: L R
Частота : 48,0 КГц
Частота кадров : 93,750 кадра/сек (512 spf)
Битовая глубина : 16 бит
Метод сжатия : Без потерь / Lossy
Размер потока : 1,01 Гбайт (6%)
Заголовок : Original
Язык : English
Default : Нет
Forced : Нет
Аудио #4
Идентификатор : 5
Формат : AC-3
Формат/Информация : Audio Coding 3
Расширение режима : CM (complete main)
Параметр Endianness формата : Big
Идентификатор кодека : A_AC3
Продолжительность : 1 ч. 32 м.
Вид битрейта : Постоянный
Битрейт : 256 Кбит/сек
Каналы : 2 канала
Расположение каналов : Front: L R
Частота : 48,0 КГц
Частота кадров : 31,250 кадров/сек (1536 spf)
Битовая глубина : 16 бит
Метод сжатия : С потерями
Размер потока : 170 Мбайт (1%)
Заголовок : Commentary by Cast & Crew
Язык : English
Default : Нет
Forced : Нет
Меню
00:00:00.000 : en: Chapter 1
00:09:14.875 : en: Chapter 2
00:16:29.458 : en: Chapter 3
00:29:19.875 : en: Chapter 4
00:38:06.083 : en: Chapter 5
00:46:43.875 : en: Chapter 6
00:55:52.458 : en: Chapter 7
01:03:24.458 : en: Chapter 8
01:12:57.458 : en: Chapter 9
01:19:10.458 : en: Chapter 10
01:25:15.458 : en: Chapter 11
01:32:53.000 : en: Chapter 12

Скриншоты


[Profile]  [PM] 
Display posts:    
Reply to topic

Current time is: 15-Dec 12:18

All times are UTC + 2



You cannot post new topics in this forum
You cannot reply to topics in this forum
You cannot edit your posts in this forum
You cannot delete your posts in this forum
You cannot vote in polls in this forum
You cannot attach files in this forum
You cannot download files in this forum