Бен-Гур / Ben-Hur (Тимур Бекмамбетов / Timur Bekmambetov) [2016, США, боевик, драма, приключения, BDRip 720p] Dub (BD CEE) + Sub Rus, Eng + Original Eng

Reply to topic
 
Author
Message

Faust ®

Gender: Unknown

Longevity: 8 years 2 months

Posts: 13717

Reputation: 0 [+] [-]

Faust · Post 11-Feb-2017 20:17

[Quote] 

Бен-Гур / Ben-Hur
Страна: США
Студия: Metro-Goldwyn-Mayer (MGM), Paramount Pictures
Жанр: боевик, драма, приключения
Год выпуска: 2016
Продолжительность: 02:03:19
Перевод: Профессиональный (дублированный) BD CEE
Cубтитры: Русские, Украинские, Английские
Оригинальная аудиодорожка: английский
Режиссер: Тимур Бекмамбетов / Timur Bekmambetov
В ролях: Джек Хьюстон, Тоби Кеббелл, Родриго Санторо, Назанин Бониади, Айелет Зурер, Йохан Филип Асбек, София Блэк-Д`Элиа, Морган Фримен, Марван Кензари, Мойзес Ариас
Описание: История Бен-Гура, потомка знатного иудейского рода, который был предан своим лучшим другом-римлянином. Проведя много лет в рабстве на римских галерах, Бен-Гур в итоге получает возможность вернуться на родину и отомстить обидчику.
Доп. Информация:
Рип от HDClub.
Скачать сэмпл
Тип релиза: BDRip 720p
Контейнер: MKV
Видео: MPEG-4 AVC, 7078 Кбит/с, 1280x534, 23,976 fps
Аудио: Rus, AC3, 640 kb/s (6 ch), 48 kHz
Аудио 2: Eng, DTS, 1509 kb/s (6 ch), 48 kHz
Формат субтитров: softsub (SRT)

x264 info

x264 [info]: frame I:1396 Avg QP:12.90 size:135431
x264 [info]: frame P:46443 Avg QP:14.48 size: 63387
x264 [info]: frame B:129568 Avg QP:16.21 size: 26350
x264 [info]: consecutive B-frames: 4.4% 5.4% 14.7% 24.3% 19.1% 22.9% 5.5% 2.2% 1.4%

MediaInfo

Общее
Уникальный идентификатор : 228117197308568797653687169760737627976 (0xAB9DC62C3EBDD069B601AE235B5C0F48)
Полное имя : Ben-Hur.2016.BDRip.720p.mkv
Формат : Matroska
Версия формата : Version 4 / Version 2
Размер файла : 7,95 Гбайт
Продолжительность : 2 ч. 3 м.
Общий поток : 9231 Кбит/сек
Дата кодирования : UTC 2017-02-03 04:02:19
Программа кодирования : mkvmerge v9.8.0 ('Kuglblids') 64bit
Библиотека кодирования : libebml v1.3.4 + libmatroska v1.4.5
Видео
Идентификатор : 1
Формат : AVC
Формат/Информация : Advanced Video Codec
Профиль формата : High@L4.1
Параметр CABAC формата : Да
Параметр ReFrames формата : 12 кадров
Идентификатор кодека : V_MPEG4/ISO/AVC
Продолжительность : 2 ч. 3 м.
Битрейт : 7078 Кбит/сек
Ширина : 1280 пикселей
Высота : 534 пикселя
Соотношение сторон : 2,40:1
Режим частоты кадров : Постоянный
Частота кадров : 23,976 (24000/1001) кадра/сек
Цветовое пространство : YUV
Субдискретизация насыщенности : 4:2:0
Битовая глубина : 8 бит
Тип развёртки : Прогрессивная
Бит/(Пиксели*Кадры) : 0.432
Размер потока : 6,10 Гбайт (77%)
Библиотека кодирования : x264 core 148 r2744 b97ae06
Настройки программы : cabac=1 / ref=12 / deblock=1:-3:-3 / analyse=0x3:0x133 / me=umh / subme=11 / psy=1 / psy_rd=1.00:0.00 / mixed_ref=1 / me_range=48 / chroma_me=1 / trellis=2 / 8x8dct=1 / cqm=0 / deadzone=21,11 / fast_pskip=0 / chroma_qp_offset=-2 / threads=17 / lookahead_threads=2 / sliced_threads=0 / nr=0 / decimate=1 / interlaced=0 / bluray_compat=0 / constrained_intra=0 / bframes=8 / b_pyramid=2 / b_adapt=2 / b_bias=0 / direct=1 / weightb=1 / open_gop=0 / weightp=2 / keyint=240 / keyint_min=23 / scenecut=40 / intra_refresh=0 / rc_lookahead=60 / rc=crf / mbtree=0 / crf=15.0 / qcomp=0.60 / qpmin=0 / qpmax=69 / qpstep=4 / vbv_maxrate=50000 / vbv_bufsize=62500 / crf_max=0.0 / nal_hrd=none / filler=0 / ip_ratio=1.35 / pb_ratio=1.25 / aq=3:0.80
Язык : English
Default : Да
Forced : Нет
Аудио #1
Идентификатор : 2
Формат : AC-3
Формат/Информация : Audio Coding 3
Расширение режима : CM (complete main)
Параметр Endianness формата : Big
Идентификатор кодека : A_AC3
Продолжительность : 2 ч. 3 м.
Вид битрейта : Постоянный
Битрейт : 640 Кбит/сек
Каналы : 6 каналов
Расположение каналов : Front: L C R, Side: L R, LFE
Частота : 48,0 КГц
Частота кадров : 31,250 кадров/сек (1536 spf)
Метод сжатия : С потерями
Размер потока : 565 Мбайт (7%)
Заголовок : Blu-ray CEE
Язык : Russian
Default : Да
Forced : Нет
Аудио #2
Идентификатор : 3
Формат : DTS
Формат/Информация : Digital Theater Systems
Режим : 16
Параметр Endianness формата : Big
Идентификатор кодека : A_DTS
Продолжительность : 2 ч. 3 м.
Вид битрейта : Постоянный
Битрейт : 1509 Кбит/сек
Каналы : 6 каналов
Расположение каналов : Front: L C R, Side: L R, LFE
Частота : 48,0 КГц
Частота кадров : 93,750 кадра/сек (512 spf)
Битовая глубина : 24 бит
Метод сжатия : С потерями
Размер потока : 1,30 Гбайт (16%)
Язык : English
Default : Нет
Forced : Нет
Текст #1
Идентификатор : 4
Формат : UTF-8
Идентификатор кодека : S_TEXT/UTF8
Идентификатор кодека/Информация : UTF-8 Plain Text
Продолжительность : 1 ч. 57 м.
Битрейт : 0 бит/сек
Count of elements : 8
Размер потока : 130 байт (0%)
Заголовок : Forced
Язык : Russian
Default : Да
Forced : Нет
Текст #2
Идентификатор : 5
Формат : UTF-8
Идентификатор кодека : S_TEXT/UTF8
Идентификатор кодека/Информация : UTF-8 Plain Text
Продолжительность : 1 ч. 57 м.
Битрейт : 68 бит/сек
Count of elements : 1290
Размер потока : 59,1 Кбайт (0%)
Язык : Russian
Default : Нет
Forced : Нет
Текст #3
Идентификатор : 6
Формат : UTF-8
Идентификатор кодека : S_TEXT/UTF8
Идентификатор кодека/Информация : UTF-8 Plain Text
Продолжительность : 1 ч. 55 м.
Битрейт : 76 бит/сек
Count of elements : 1450
Размер потока : 64,4 Кбайт (0%)
Язык : Ukrainian
Default : Нет
Forced : Нет
Текст #4
Идентификатор : 7
Формат : UTF-8
Идентификатор кодека : S_TEXT/UTF8
Идентификатор кодека/Информация : UTF-8 Plain Text
Продолжительность : 1 ч. 56 м.
Битрейт : 46 бит/сек
Count of elements : 1473
Размер потока : 39,5 Кбайт (0%)
Язык : English
Default : Нет
Forced : Нет
Текст #5
Идентификатор : 8
Формат : UTF-8
Идентификатор кодека : S_TEXT/UTF8
Идентификатор кодека/Информация : UTF-8 Plain Text
Продолжительность : 1 ч. 56 м.
Битрейт : 56 бит/сек
Count of elements : 1680
Размер потока : 48,3 Кбайт (0%)
Заголовок : SDH
Язык : English
Default : Нет
Forced : Нет
Текст #6
Идентификатор : 9
Формат : UTF-8
Идентификатор кодека : S_TEXT/UTF8
Идентификатор кодека/Информация : UTF-8 Plain Text
Продолжительность : 1 ч. 57 м.
Битрейт : 68 бит/сек
Count of elements : 1681
Размер потока : 58,7 Кбайт (0%)
Заголовок : SDH-Colored
Язык : English
Default : Нет
Forced : Нет
Меню
00:00:00.000 : en:1
00:07:03.881 : en:2
00:15:42.942 : en:3
00:19:47.895 : en:4
00:27:25.852 : en:5
00:33:09.362 : en:6
00:41:07.214 : en:7
00:48:20.063 : en:8
00:55:21.651 : en:9
01:05:41.228 : en:10
01:13:15.891 : en:11
01:22:26.900 : en:12
01:31:30.193 : en:13
01:39:55.656 : en:14
01:46:30.801 : en:15
01:53:30.136 : en:16

Скриншоты

[Profile]  [PM] 
Display posts:    
Reply to topic

Current time is: 09-Dec 04:13

All times are UTC + 2



You cannot post new topics in this forum
You cannot reply to topics in this forum
You cannot edit your posts in this forum
You cannot delete your posts in this forum
You cannot vote in polls in this forum
You cannot attach files in this forum
You cannot download files in this forum