Справедливость или хаос / Расследование / L\'enquête / The Clearstream Affair (Венсан Гаренк / Vincent Garenq) [2014, Франция, Бельгия, Люксембург, детектив, триллер, BDRip 1080p] MVO (Первый канал) + Original Fre + Sub Fre

Reply to topic
 
Author
Message

Faust ®

Gender: Unknown

Longevity: 8 years 2 months

Posts: 13739

Reputation: 0 [+] [-]

Faust · Post 11-Feb-2017 20:17

[Quote] 

Справедливость или хаос / Расследование / L'enquête / The Clearstream Affair
Страна: Франция, Бельгия, Люксембург
Студия: Nord-Ouest Productions, Samsa Film, Artémis Productions, France 3 Cinéma, Mars Films, Cool Industrie, Belgacom, Canal+, Ciné+, France Télévisions
Жанр: Детектив, триллер
Год выпуска: 2014
Продолжительность: 01:46:09
Перевод: Профессиональный (многоголосый закадровый) кинокомпания Эй Би Видео по заказу Первого канала
Cубтитры: Французские (форсированные)
Оригинальная аудиодорожка: Французский
Режиссер: Венсан Гаренк / Vincent Garenq
В ролях: Жиль Леллуш, Шарль Берлинг, Лорен Капеллуто, Флоранс Луаре, Кристиан Кмиотек, Грегуар Бонне, Антуан Гуи, Эрик Наггар, Жиль Арбона, Эрве Фаллю, Лорен Д’Ольсе, Томас Серафин, Жан-Поль Бриссар, Мари-Кристин Орри, Марк Олингер, Жоэль Десо, Жермен Вагнер
Описание: Политический триллер о том, к чему может привести журналистское расследование, с Жилем Леллушем в главной роли. Разоблачение журналистом Дэни Робером темных делишек банковской фирмы Clearstream, вызывает настоящую бурю в европейском финансовом мире. Продолжая разбираться в хитросплетениях сомнительных международных банковских операций, Робер знакомится с судьей Рено ван Раимбеке, возглавляющим масштабное расследование коррупционных схем. Вскоре совместные поиски позволяют им сделать выводы, обнародование которых может иметь весьма серьезные последствия для Франции и всей Европы...
Дополнительная информация:
Автор релиза -
Многоголосый перевод записан мной с канала Первый HD 30.01.2017. Синхронизация - ylnian
В оригинальном потоке звук псевдо-объёмный AC3 5.1 384 kbps - четыре канала из шести оказались пустыми, поэтому аудио-дорожка была перекодирована в AC3 2.0 384 kbps с использованием eac3to и Sony Vegas
Источник - L.Enquete.2014.FRENCH.1080p.BluRay.x264-FiDO
Имеется навигация по главам


Сэмпл: https://yadi.sk/i/Fl9n6mu53CStAF
Качество видео: BDRip 1080p
Формат видео: MKV
Видео: MPEG-4, 1920x800 (2,35:1), 24.000 fps, 8811 kbps, 0.239 bit/pixel
Аудио 1: Русский AC3, 48000 Гц, 2ch, 384 kbps
Аудио 2: Французский DTS 5.1 / 48 kHz / 1509 kbps / 24-bit
Формат субтитров: softsub (SRT)

MediaInfo

Общее
Уникальный идентификатор : 230238145542639653309465662495600022071 (0xAD3640FE8BF9CE8B80B27996CC4A1237)
Полное имя : E:\Lenquete.2014.BDRip.1080p-ylnian.mkv
Формат : Matroska
Версия формата : Version 4 / Version 2
Размер файла : 7,93 Гбайт
Продолжительность : 1 ч. 46 м.
Общий поток : 10,7 Мбит/сек
Название фильма : Lenquete.2014.BDRip.1080p-ylnian
Дата кодирования : UTC 2017-02-02 11:04:44
Программа кодирования : mkvmerge v9.8.0 ('Kuglblids') 64bit
Библиотека кодирования : libebml v1.3.4 + libmatroska v1.4.5
Видео
Идентификатор : 1
Формат : AVC
Формат/Информация : Advanced Video Codec
Профиль формата : High@L4.1
Параметр CABAC формата : Да
Параметр ReFrames формата : 5 кадров
Идентификатор кодека : V_MPEG4/ISO/AVC
Продолжительность : 1 ч. 46 м.
Битрейт : 8811 Кбит/сек
Ширина : 1920 пикселей
Высота : 800 пикселей
Соотношение сторон : 2,40:1
Режим частоты кадров : Постоянный
Частота кадров : 24,000 кадра/сек
Цветовое пространство : YUV
Субдискретизация насыщенности : 4:2:0
Битовая глубина : 8 бит
Тип развёртки : Прогрессивная
Бит/(Пиксели*Кадры) : 0.239
Размер потока : 6,53 Гбайт (82%)
Заголовок : L.Enquete.2014.FRENCH.1080p.BluRay.x264-FiDO
Библиотека кодирования : x264 core 146 r2538 121396c
Настройки программы : cabac=1 / ref=5 / deblock=1:1:1 / analyse=0x3:0x133 / me=umh / subme=7 / psy=1 / psy_rd=1.00:0.00 / mixed_ref=1 / me_range=16 / chroma_me=1 / trellis=1 / 8x8dct=1 / cqm=0 / deadzone=21,11 / fast_pskip=0 / chroma_qp_offset=-2 / threads=12 / lookahead_threads=2 / sliced_threads=0 / nr=0 / decimate=1 / interlaced=0 / bluray_compat=0 / constrained_intra=0 / bframes=3 / b_pyramid=2 / b_adapt=2 / b_bias=0 / direct=3 / weightb=1 / open_gop=0 / weightp=2 / keyint=240 / keyint_min=24 / scenecut=40 / intra_refresh=0 / rc_lookahead=50 / rc=2pass / mbtree=1 / bitrate=8811 / ratetol=1.0 / qcomp=0.60 / qpmin=0 / qpmax=69 / qpstep=4 / cplxblur=20.0 / qblur=0.5 / ip_ratio=1.40 / aq=1:1.00
Язык : French
Default : Да
Forced : Да
Аудио #1
Идентификатор : 2
Формат : AC-3
Формат/Информация : Audio Coding 3
Расширение режима : CM (complete main)
Параметр Endianness формата : Big
Идентификатор кодека : A_AC3
Продолжительность : 1 ч. 46 м.
Вид битрейта : Постоянный
Битрейт : 384 Кбит/сек
Каналы : 2 канала
Расположение каналов : Front: L R
Частота : 48,0 КГц
Частота кадров : 31,250 кадров/сек (1536 spf)
Метод сжатия : С потерями
Размер потока : 292 Мбайт (4%)
Заголовок : MVO (AC3 2.0 384 kbps)
Язык : Russian
Default : Да
Forced : Да
Аудио #2
Идентификатор : 3
Формат : DTS
Формат/Информация : Digital Theater Systems
Режим : 16
Параметр Endianness формата : Big
Идентификатор кодека : A_DTS
Продолжительность : 1 ч. 46 м.
Вид битрейта : Постоянный
Битрейт : 1509 Кбит/сек
Каналы : 6 каналов
Расположение каналов : Front: L C R, Side: L R, LFE
Частота : 48,0 КГц
Частота кадров : 93,750 кадра/сек (512 spf)
Битовая глубина : 24 бит
Метод сжатия : С потерями
Размер потока : 1,12 Гбайт (14%)
Заголовок : DTS 5.1 1509 kbps
Язык : French
Default : Нет
Forced : Нет
Текст
Идентификатор : 4
Формат : UTF-8
Идентификатор кодека : S_TEXT/UTF8
Идентификатор кодека/Информация : UTF-8 Plain Text
Продолжительность : 1 ч. 3 м.
Битрейт : 5 бит/сек
Count of elements : 58
Размер потока : 2,43 Кбайт (0%)
Заголовок : forced
Язык : French
Default : Нет
Forced : Нет
Меню
00:00:00.000 : en:00:00:00.000
00:14:26.000 : en:00:14:26.000
00:29:35.500 : en:00:29:35.500
00:43:49.292 : en:00:43:49.292
00:59:56.583 : en:00:59:56.583
01:15:09.917 : en:01:15:09.917
01:30:16.292 : en:01:30:16.292
01:40:27.000 : en:01:40:27.000

Скриншот c названием фильма

Скриншоты

[Profile]  [PM] 
Display posts:    
Reply to topic

Current time is: 15-Dec 04:24

All times are UTC + 2



You cannot post new topics in this forum
You cannot reply to topics in this forum
You cannot edit your posts in this forum
You cannot delete your posts in this forum
You cannot vote in polls in this forum
You cannot attach files in this forum
You cannot download files in this forum