В постели с Викторией / Victoria (Жюстин Трие / Justine Triet) [2016, Франция, драма, мелодрама, комедия, BDRip 720p] MVO (iTunes) + Sub Fre + Original Fre

Reply to topic
 
Author
Message

Faust ®

Gender: Unknown

Longevity: 8 years 4 months

Posts: 13988

Reputation: 0 [+] [-]

Faust · Post 11-Feb-2017 20:17

[Quote] 

В постели с Викторией / Victoria
Страна: Франция
Студия: Canal+ [fr], Centre National de la Cinématographie (CNC
Жанр: драма, мелодрама, комедия
Год выпуска: 2016
Продолжительность: 01:36:10--Перевод: Профессиональный (многоголосый закадровый) iTunes
Cубтитры: французские
Оригинальная аудио дорожка: французская--Режиссер: Жюстин Трие / Justine Triet--В ролях: Виржини Эфира, Венсан Лакост, Мельвиль Пупо, Лоран Пуатрено, Лор Калами, Жюли Мулье, Софи Фийер--Описание: Виктория пытается начать новую жизнь — взять себя в руки, разобраться с любовниками, больше спать и лучше питаться. Только вот бывший, обратившийся к ней за помощью, не помогает навести порядок. А другой возлюбленный, возомнивший себя популярным писателем, посвящает всю сеть в подробности ее интимной жизни.--Доп. информация: Сохранены оригинальные главы как на Blu-ray.
Замена видео дорожки, сэмпл, инфо файла, скриншоты, сравнение.--Сэмпл: http://sendfile.su/1304812--Тип релиза: BDRip 720p
Контейнер: MKV
Видео кодек: H.264
Аудио кодек: AC-3, DTS
Видео: MPEG4/AVC, 1280x536p, 2.40:1, 23.976 (24000/1001) FPS, 8632 Mb/s
Аудио 1: RUS / MVO, AC-3, 48.0 kHz, 5.1, 384 kb/s |закадровый
Аудио 2: FRE / нет, DTS, 48.0 kHz, 5.1, 1509 kb/s | оригинал
Формат субтитров: softsub (SRT)
Релиз:

MediaInfo

x264, pass 2
x264 [info]: profile High, level 4.1,
x264 [info]: frame I:907 Avg QP:14.75 size:132310
x264 [info]: frame P:24170 Avg QP:16.09 size: 71438
x264 [info]: frame B:113273 Avg QP:17.30 size: 40008
Формат : Matroska
Версия формата : Version 2
Размер файла : 7,21 Гбайт
Продолжительность : 1 ч. 36 м.
Общий поток : 10,7 Мбит/сек
Название фильма : Victoria.2016 - Rip from Rutracker
Дата кодирования : UTC 2017-02-02 09:59:27
Программа кодирования : mkvmerge v7.6.0 ('Garden of Dreams') 32bit built on Feb 11 2015 00:18:47
Библиотека кодирования : libebml v1.3.1 + libmatroska v1.4.2
Видео
Идентификатор : 1
Формат : AVC
Формат/Информация : Advanced Video Codec
Профиль формата : High@L4.1
Параметр CABAC формата : Да
Параметр ReFrames формата : 12 кадров
Идентификатор кодека : V_MPEG4/ISO/AVC
Продолжительность : 1 ч. 36 м.
Битрейт : 8632 Кбит/сек
Ширина : 1280 пикселей
Высота : 536 пикселей
Соотношение сторон : 2,40:1
Режим частоты кадров : Постоянный
Частота кадров : 23,976 (24000/1001) кадра/сек
Цветовое пространство : YUV
Субдискретизация насыщенности : 4:2:0
Битовая глубина : 8 бит
Тип развёртки : Прогрессивная
Бит/(Пиксели*Кадры) : 0.525
Размер потока : 5,80 Гбайт (80%)
Заголовок : Victoria.2016 - Rip from Rutracker
Библиотека кодирования : x264 core 148 r2744 b97ae06
Настройки программы : cabac=1 / ref=12 / deblock=1:-3:-3 / analyse=0x3:0x113 / me=umh / subme=10 / psy=1 / psy_rd=1.20:0.10 / mixed_ref=1 / me_range=24 / chroma_me=1 / trellis=2 / 8x8dct=1 / cqm=0 / deadzone=21,11 / fast_pskip=1 / chroma_qp_offset=-3 / threads=6 / lookahead_threads=1 / sliced_threads=0 / nr=0 / decimate=0 / interlaced=0 / bluray_compat=0 / constrained_intra=0 / bframes=10 / b_pyramid=2 / b_adapt=2 / b_bias=0 / direct=1 / weightb=1 / open_gop=0 / weightp=2 / keyint=250 / keyint_min=23 / scenecut=40 / intra_refresh=0 / rc_lookahead=60 / rc=crf / mbtree=0 / crf=17.1 / qcomp=0.80 / qpmin=0 / qpmax=69 / qpstep=4 / vbv_maxrate=62500 / vbv_bufsize=78125 / crf_max=0.0 / nal_hrd=none / filler=0 / ip_ratio=1.30 / pb_ratio=1.20 / aq=1:0.72
Default : Да
Forced : Нет
Statistics Tags Issue : mkvmerge v9.7.1 ('Pandemonium') 64bit 2017-02-02 05:08:20 / mkvmerge v7.6.0 ('Garden of Dreams') 32bit built on Feb 11 2015 00:18:47 2017-02-02 09:59:27
FromStats_BitRate : 8843189
FromStats_Duration : 01:36:10.348000000
FromStats_FrameCount : 138350
FromStats_StreamSize : 6378535362
Аудио #1
Идентификатор : 2
Формат : AC-3
Формат/Информация : Audio Coding 3
Расширение режима : CM (complete main)
Параметр Endianness формата : Big
Идентификатор кодека : A_AC3
Продолжительность : 1 ч. 36 м.
Вид битрейта : Постоянный
Битрейт : 384 Кбит/сек
Каналы : 6 каналов
Расположение каналов : Front: L C R, Side: L R, LFE
Частота : 48,0 КГц
Частота кадров : 31,250 кадров/сек (1536 spf)
Битовая глубина : 16 бит
Метод сжатия : С потерями
Размер потока : 264 Мбайт (4%)
Заголовок : закадровый
Язык : Russian
Default : Да
Forced : Нет
Аудио #2
Идентификатор : 3
Формат : DTS
Формат/Информация : Digital Theater Systems
Режим : 16
Параметр Endianness формата : Big
Идентификатор кодека : A_DTS
Продолжительность : 1 ч. 36 м.
Вид битрейта : Постоянный
Битрейт : 1509 Кбит/сек
Каналы : 6 каналов
Расположение каналов : Front: L C R, Side: L R, LFE
Частота : 48,0 КГц
Частота кадров : 93,750 кадра/сек (512 spf)
Битовая глубина : 24 бит
Метод сжатия : С потерями
Размер потока : 1,01 Гбайт (14%)
Заголовок : оригинал
Язык : French
Default : Нет
Forced : Нет
Текст
Идентификатор : 4
Формат : UTF-8
Идентификатор кодека : S_TEXT/UTF8
Идентификатор кодека/Информация : UTF-8 Plain Text
Заголовок : французские
Язык : French
Default : Нет
Forced : Нет
Меню
00:00:00.000 : en:00:00:00.000
00:09:27.399 : en:00:09:27.399
00:22:26.470 : en:00:22:26.470
00:34:23.393 : en:00:34:23.393
00:45:34.231 : en:00:45:34.231
00:57:00.666 : en:00:57:00.666
01:08:45.121 : en:01:08:45.121
01:21:00.313 : en:01:21:00.313
01:32:34.006 : en:01:32:34.006

Скриншоты





Сравнение с исходником

http://screenshotcomparison.com/comparison/199218/picture:3
[Profile]  [PM] 
Display posts:    
Reply to topic

Current time is: 23-Jan 16:01

All times are UTC + 2



You cannot post new topics in this forum
You cannot reply to topics in this forum
You cannot edit your posts in this forum
You cannot delete your posts in this forum
You cannot vote in polls in this forum
You cannot attach files in this forum
You cannot download files in this forum