Соляная принцесса / Die Salzprinzessin (Золтан Спиранделли / Zoltan Spirandelli) [2015, Германия, сказка, фэнтези, семейный, HDTVRip 720p] MVO (Игмар) + Original Ger

Reply to topic
 
Author
Message

Faust ®

Gender: Unknown

Longevity: 8 years 2 months

Posts: 13739

Reputation: 0 [+] [-]

Faust · Post 11-Feb-2017 20:17

[Quote] 

Соляная принцесса / Die Salzprinzessin

Страна: Германия
Жанр: сказка, фэнтези, семейный
Год выпуска: 2015
Продолжительность: 00:58:36
Перевод: Профессиональный (многоголосый закадровый) компания "Игмар"
Cубтитры: нет
Оригинальная аудиодорожка: немецкий
Режиссер: Золтан Спиранделли / Zoltan Spirandelli
В ролях: Леони Шарлотта Бриль, Леонард Лансинк, Элвис Клаузен, София фон Кессель, Леннарт Маттисен, Александра Мартини, Свенья Гёргер, Мерилу-Саския Пулман, Саймон Павловский, Бен Артман
Описание: Как-то раз король спросил у трёх своих дочерей, как сильно они его любят, и ответ младшей так его разозлил, что он прогнал её. Вернуться она сможет лишь при одном условии...

Доп. информация: За русскую дорожку большая благодарность Raptorio Rio.
Сэмпл: https://yadi.sk/i/YvHDxI1R3CRi3u
Тип релиза: HDTVRip 720p
Контейнер: MKV
Видео: AVC, 1280x720, 16:9, 5088 kbps, 25.000 fps
Аудио 1: RUS, AC3, 2.0, 48 kHz, 192 kbps
Аудио 2: GER, AC3, 2.0, 48 kHz, 192 kbps

MediaInfo

General
Unique ID : 214580277480535864455103723304786472169 (0xA16EA87EF9544E6EAC6D143766762CE9)
Complete name : Соляная принцесса [2015] 720p.mkv
Format : Matroska
Format version : Version 4 / Version 2
File size : 2.29 GiB
Duration : 58mn 35s
Overall bit rate : 5 583 Kbps
Encoded date : UTC 2017-02-01 23:43:27
Writing application : mkvmerge v8.3.0 ('Over the Horizon') 32bit
Writing library : libebml v1.3.1 + libmatroska v1.4.2
Video
ID : 1
Format : AVC
Format/Info : Advanced Video Codec
Format profile : High@L3.1
Format settings, CABAC : Yes
Format settings, ReFrames : 5 frames
Codec ID : V_MPEG4/ISO/AVC
Duration : 58mn 35s
Bit rate : 5 088 Kbps
Width : 1 280 pixels
Height : 720 pixels
Display aspect ratio : 16:9
Frame rate mode : Constant
Frame rate : 25.000 fps
Color space : YUV
Chroma subsampling : 4:2:0
Bit depth : 8 bits
Scan type : Progressive
Bits/(Pixel*Frame) : 0.221
Stream size : 2.08 GiB (91%)
Writing library : x264 core 146 r2538 121396c
Encoding settings : cabac=1 / ref=5 / deblock=1:-1:-1 / analyse=0x3:0x113 / me=umh / subme=8 / psy=1 / psy_rd=1.00:0.15 / mixed_ref=1 / me_range=16 / chroma_me=1 / trellis=1 / 8x8dct=1 / cqm=0 / deadzone=21,11 / fast_pskip=1 / chroma_qp_offset=-3 / threads=12 / lookahead_threads=2 / sliced_threads=0 / nr=0 / decimate=1 / interlaced=0 / bluray_compat=0 / constrained_intra=0 / bframes=3 / b_pyramid=2 / b_adapt=2 / b_bias=0 / direct=3 / weightb=1 / open_gop=0 / weightp=2 / keyint=250 / keyint_min=24 / scenecut=40 / intra_refresh=0 / rc_lookahead=50 / rc=crf / mbtree=1 / crf=18.0 / qcomp=0.60 / qpmin=0 / qpmax=69 / qpstep=4 / ip_ratio=1.40 / aq=1:1.00
Language : German
Default : Yes
Forced : No
Audio #1
ID : 2
Format : AC-3
Format/Info : Audio Coding 3
Mode extension : CM (complete main)
Format settings, Endianness : Big
Codec ID : A_AC3
Duration : 58mn 35s
Bit rate mode : Constant
Bit rate : 192 Kbps
Channel(s) : 2 channels
Channel positions : Front: L R
Sampling rate : 48.0 KHz
Compression mode : Lossy
Stream size : 80.5 MiB (3%)
Title : MVO (Игмар)
Language : Russian
Default : Yes
Forced : No
Audio #2
ID : 3
Format : AC-3
Format/Info : Audio Coding 3
Mode extension : CM (complete main)
Format settings, Endianness : Big
Codec ID : A_AC3
Duration : 58mn 35s
Bit rate mode : Constant
Bit rate : 192 Kbps
Channel(s) : 2 channels
Channel positions : Front: L R
Sampling rate : 48.0 KHz
Compression mode : Lossy
Stream size : 80.5 MiB (3%)
Title : GER
Language : German
Default : No
Forced : No

Все фильмы серии 'Sechs auf einen Streich'

Сезон 1:
Столик-сам-накройся, золотой осёл и дубинка из мешка / Tischlein deck dich [2008]
Братец и Сестрица / Brüderchen und Schwesterchen [2008]
Король-лягушонок или Железный Генрих / Der Froschkönig [2008]
Король Дроздобород / König Drosselbart [2008]
Госпожа Метелица / Frau Holle [2008]
Храбрый портняжка / Das tapfere Schneiderlein [2008]
Сезон 2:
Белоснежка / Schneewittchen [2009]
Рапунцель / Rapunzel [2009]
Кот в сапогах / Der gestiefelte Kater [2009]
Спящая красавица / Dornröschen [2009]
Принцесса для гусей / Die Gänsemagd [2009]
Румпельштильцхен / Rumpelstilzchen [2009]
Бременские музыканты / Die Bremer Stadtmusikanten [2009]
Умная дочь крестьянина / Die kluge Bauerntochter [2009]
Сезон 3:
Волшебный свет / Das blaue Licht [2010]
Принцесса на горошине / Die Prinzessin auf der Erbse [2010]
Мастер-плут / Der Meisterdieb [2010]
Новое платье короля / Des Kaisers neue Kleider [2010]
Сезон 4:
Йоринда и Йорингель / Jorinde und Joringel [2011]
Золушка / Aschenputtel [2011]
Звёздные талеры / Die Sterntaler [2011]
Стоптанные туфельки / Die zertanzten Schuhe [2011]
Сезон 5:
Красная Шапочка / Rotkäppchen [2012]
Беляночка и Розочка / Schneeweißchen und Rosenrot [2012]
Гензель и Гретель / Hänsel und Gretel [2012]
Ослиная шкура / Allerleirauh [2012]
Сезон 6:
О рыбаке и его жене / Vom Fischer und seiner Frau [2013]
Девочка со спичками / Das Mädchen mit den Schwefelhölzern [2013]
Русалочка / Die kleine Meerjungfrau [2013]
Дьявол с тремя золотыми волосками / Der Teufel mit den drei goldenen Haaren [2013]
Сезон 7:
Распрекраса / Siebenschön [2014]
Вшестером целый свет обойдём / Sechse kommen durch die ganze Welt [2014]
Три пера / Die drei Federn [2014]
Сказка о том, кто ходил страху учиться / Von einem, der auszog, das Fürchten zu lernen [2014]
Сезон 8:
Соляная принцесса / Die Salzprinzessin [2015]
Щелкунчик и Мышиный король / Nussknacker und Mausekönig [2015]
Принцесса Малейн / Prinzessin Maleen [2015]
Принц-медведь / Der Prinz im Bärenfell [2015]
Сезон 9:
Принц Химельблау и фея Люпин / Prinz Himmelblau und Fee Lupine [2016]
Поющее и звенящее деревце / Das singende, klingende Bäumchen [2016]
Сказка о Шлараффенландии / Das Märchen vom Schlaraffenland [2016]
Счастливый Ганс / Hans im Glück [2016]
[Profile]  [PM] 
Display posts:    
Reply to topic

Current time is: 15-Dec 04:56

All times are UTC + 2



You cannot post new topics in this forum
You cannot reply to topics in this forum
You cannot edit your posts in this forum
You cannot delete your posts in this forum
You cannot vote in polls in this forum
You cannot attach files in this forum
You cannot download files in this forum