Человек – швейцарский нож / Swiss Army Man (Дэн Кван / Dan Kwan, Дэниэл Шайнерт / Daniel Scheinert) [2016, США, фэнтези, драма, приключения, BDRemux 1080p] Dub (iTunes) + Sub Rus, Eng + Original Eng

Reply to topic
 
Author
Message

Faust ®

Gender: Unknown

Longevity: 8 years 4 months

Posts: 14016

Reputation: 0 [+] [-]

Faust · Post 11-Feb-2017 20:17

[Quote] 

Человек – швейцарский нож / Swiss Army Man (2016)- Страна: США
Студия: Cold Iron Pictures
Жанр: Фэнтези, Драма, Мелодрама, Приключения
Год выпуска: 2016
Продолжительность: 01:37:41
Перевод: Профессиональный (дублированный) iTunes
Оригинальная аудиодорожка: Английский
Cубтитры:
  • английские вшитые, отключаемые
  • русские вшитые, отключаемые
-Режиссер: Дэн Кван, Дэниэл Шайнерт
В ролях: Пол Дано, Дэниэл Рэдклифф, Мэри Элизабет Уинстэд, Антония Риберо,
Тимоти Йолих, Ричард Гросс, Марика Кастил, Энди Халл, Аарон Маршалл, Шейн Каррут-Описание: Оказавшись на необитаемом острове, Хэнк уже был готов потерять всякую надежду, но все меняется, когда на берегу он находит труп по имени Мэнни.
Многофункциональность Мэнни поможет Хэнку выжить в диких условиях и заново обрести радость жизни.
Вместе они отправятся в эпическое приключение, которое вернет Хэнка к девушке его мечты.-IMDb:

Сэмпл-Тип релиза: BDRemux
Контейнер: MKV
Видео: MPEG-4 AVC Video, 34282 kbps / 1080p / 23,976 fps / 16:9 / High Profile 4.1
Аудио #1: AC-3 5.1, 384 Kbps / 48 kHz / Русский
Аудио #2: DTS-HD MA / 7.1 / 48 kHz / 4914 kbps / 24-bit (DTS Core: 5.1 / 48 kHz / 1509 kbps / 24-bit) Английский

MediaInfo

Format                      : Matroska
Format version              : Version 4 / Version 2
File size                   : 26.9 GiB
Duration                    : 1 h 37 min
Overall bit rate mode       : Variable
Overall bit rate            : 39.5 Mb/s
Encoded date                : UTC 2017-02-01 22:57:29
Writing application         : mkvmerge v9.8.0 ('Kuglblids') 64bit
Writing library             : libebml v1.3.4 + libmatroska v1.4.5
Video
ID                          : 1
Format                      : AVC
Format/Info                 : Advanced Video Codec
Format profile              : High@L4.1
Format settings, CABAC      : Yes
Format settings, ReFrames   : 4 frames
Codec ID                    : V_MPEG4/ISO/AVC
Duration                    : 1 h 37 min
Bit rate mode               : Variable
Bit rate                    : 34.2 Mb/s
Maximum bit rate            : 36.5 Mb/s
Width                       : 1 920 pixels
Height                      : 1 080 pixels
Display aspect ratio        : 16:9
Frame rate mode             : Constant
Frame rate                  : 23.976 (24000/1001) FPS
Color space                 : YUV
Chroma subsampling          : 4:2:0
Bit depth                   : 8 bits
Scan type                   : Progressive
Bits/(Pixel*Frame)          : 0.688
Stream size                 : 23.3 GiB (87%)
Title                       : Default
Language                    : English
Default                     : Yes
Forced                      : No
Audio #1
ID                          : 2
Format                      : AC-3
Format/Info                 : Audio Coding 3
Mode extension              : CM (complete main)
Format settings, Endianness : Big
Codec ID                    : A_AC3
Duration                    : 1 h 37 min
Bit rate mode               : Constant
Bit rate                    : 384 kb/s
Channel(s)                  : 6 channels
Channel positions           : Front: L C R, Side: L R, LFE
Sampling rate               : 48.0 kHz
Frame rate                  : 31.250 FPS (1536 spf)
Bit depth                   : 16 bits
Compression mode            : Lossy
Stream size                 : 267 MiB (1%)
Title                       : iTunes
Language                    : Russian
Default                     : Yes
Forced                      : No
Audio #2
ID                          : 3
Format                      : DTS
Format/Info                 : Digital Theater Systems
Format profile              : MA / Core
Mode                        : 16
Format settings, Endianness : Big
Codec ID                    : A_DTS
Duration                    : 1 h 37 min
Bit rate mode               : Variable / Constant
Bit rate                    : 4 914 kb/s / 1 509 kb/s
Channel(s)                  : 8 channels / 6 channels
Channel positions           : Front: L C R, Side: L R, Back: L R, LFE / Front: L C R, Side: L R, LFE
Sampling rate               : 48.0 kHz
Frame rate                  : 93.750 FPS (512 spf)
Bit depth                   : 24 bits
Compression mode            : Lossless / Lossy
Stream size                 : 3.34 GiB (12%)
Title                       : Original
Language                    : English
Default                     : No
Forced                      : No
Text #1
ID                          : 4
Format                      : UTF-8
Codec ID                    : S_TEXT/UTF8
Codec ID/Info               : UTF-8 Plain Text
Duration                    : 1 h 29 min
Bit rate                    : 82 b/s
Count of elements           : 1036
Stream size                 : 54.1 KiB (0%)
Title                       : Full
Language                    : Russian
Default                     : No
Forced                      : No
Text #2
ID                          : 5
Format                      : UTF-8
Codec ID                    : S_TEXT/UTF8
Codec ID/Info               : UTF-8 Plain Text
Duration                    : 1 h 33 min
Bit rate                    : 50 b/s
Count of elements           : 1130
Stream size                 : 34.4 KiB (0%)
Title                       : Full
Language                    : English
Default                     : No
Forced                      : No
Menu
00:00:00.000                : en:00:00:00.000
00:08:47.902                : en:00:08:47.902
00:13:14.335                : en:00:13:14.335
00:17:42.228                : en:00:17:42.228
00:25:11.593                : en:00:25:11.593
00:32:46.256                : en:00:32:46.256
00:37:17.068                : en:00:37:17.068
00:44:39.260                : en:00:44:39.260
00:51:44.101                : en:00:51:44.101
00:57:57.224                : en:00:57:57.224
01:03:19.337                : en:01:03:19.337
01:06:17.140                : en:01:06:17.140
01:10:05.535                : en:01:10:05.535
01:16:40.679                : en:01:16:40.679
01:22:10.092                : en:01:22:10.092
01:27:31.788                : en:01:27:31.788

Знаете ли вы, что...

  • Некоторые сцены фильма снимали в лесах у одного из заливов в округе Сан-Матео, Калифорния.
  • Несколько сцен фильма снимали среди секвой в округе Гумбольдт и возле Юрики, Калифорния.
  • Все звучащие в фильме песни исполняются а капелла. Их авторами стали Энди Халл из группы «Manchester Orchestra» и Роберт Макдауэлл.

Скриншоты

[Profile]  [PM] 
Display posts:    
Reply to topic

Current time is: 28-Jan 06:20

All times are UTC + 2



You cannot post new topics in this forum
You cannot reply to topics in this forum
You cannot edit your posts in this forum
You cannot delete your posts in this forum
You cannot vote in polls in this forum
You cannot attach files in this forum
You cannot download files in this forum