Джуниор / Junior (Айвен Райтман / Ivan Reitman) [1994, США, фантастика, мелодрама, комедия, BDRip 720p] 2x MVO+ 2x DVO + 3x AVO + VO + Ukr (MVO) + Sub Rus, Eng + Original Eng

Reply to topic
 
Author
Message

Faust ®

Gender: Unknown

Longevity: 8 years 2 months

Posts: 13717

Reputation: 0 [+] [-]

Faust · Post 11-Feb-2017 20:17

[Quote] 

Джуниор / Junior
Страна: США
Студия: Universal Pictures, Northern Lights Entertainment
Жанр: фантастика, мелодрама, комедия
Год выпуска: 1994
Продолжительность: 01:49:57
Перевод 1: Профессиональный (многоголосый закадровый) R5 / Первый канал
Перевод 2: Профессиональный (многоголосый закадровый) ТВ-6 / СТС
Перевод 3: Профессиональный (двухголосый закадровый) НТВ+
Перевод 4: Профессиональный (двухголосый закадровый) Премьер Видео Фильм
Перевод 5: Авторский (одноголосый закадровый) А.Гаврилов
Перевод 6: Авторский (одноголосый закадровый) С.Визгунов
Перевод 7: Одноголосый закадровый М.Чадов
Перевод 8: Авторский (одноголосый закадровый) А.Пронин
Cубтитры: русские, английские
Оригинальная аудиодорожка: английский
Режиссер: Айвен Райтман / Ivan Reitman
В ролях: Арнольд Шварценеггер, Дэнни ДеВито, Эмма Томпсон, Фрэнк Ланджелла, Памела Рид, Аида Туртурро, Джеймс Экхаус, Меган Кэвэна, Уэлкер Уайт, Кэтлин Чэлфант
Описание: Ученые-медики Алекс Хесс и Ларри Арбогаст работают над уникальным препаратом, который должен помочь женщинам избежать выкидышей. Когда финансирование исследований прекращается, друзья принимают неординарное решение, чтобы проверить эффективность изобретенного ими средства. Выкрав замороженную женскую яйцеклетку, Арбогаст вводит ее в тело Хесса, который согласился вынашивать младенца...- -Сэмпл: https://yadi.sk/i/LP2qufY93CLXNp
Тип релиза: BDRip 720p [MGK]
Контейнер: MKV
Видео: h.264, 1280x694, 23.976 fps, 6753 kbps
Аудио #1: Russian: AC3 2.0, 48 kHz, 192 kbps avg |Многоголосый закадровый, R5 / Первый канал|
Аудио #2: Russian: AC3 2.0, 48 kHz, 192 kbps avg |Многоголосый закадровый, ТВ-6 / СТС|
Аудио #3: Russian: AC3 5.1, 48 kHz, 448 kbps avg |Двухголосый закадровый, НТВ+|
Аудио #4: Russian: AC3 2.0, 48 kHz, 192 kbps avg |Двухголосый закадровый, Премьер Видео Фильм|
Аудио #5: Russian: DTS 5.1, 48 kHz/16-bit, 1536 kbps avg |Одноголосый закадровый, А.Гаврилов|
Аудио #6: Russian: DTS 5.1, 48 kHz/16-bit, 1536 kbps avg |Одноголосый закадровый, С.Визгунов|
Аудио #7: Russian: AC3 2.0, 48 kHz, 192 kbps avg |Одноголосый закадровый, М.Чадов|
Аудио #8: Russian: AC3 2.0, 48 kHz, 192 kbps avg |Одноголосый закадровый, А.Пронин|
Аудио #9: Ukrainian: AC3 1.0, 48 kHz, 192 kbps avg |Многоголосый закадровый, Новий канал|
Аудио #10: English: DTS 5.1, 48 kHz/16-bit, 1536 kbps avg |Оригинал|
Формат субтитров: softsub (SRT)
  • Сохранены оригинальные главы как на Blu-ray.
  • Дороги 5,6 получены путем наложения чистых голосов на центр декодированного оригинального DTS-HD MA.
  • В переводе Визгунова был небольшой поврежденный фрагмент, не подлежащий восстановлению - заменен на аналогичный из перевода Гаврилова.

MediaInfo

Полное имя : D:\Junior.1994.720p.BluRay.8xRus.Ukr.Eng.HDCLUB.mkv
Формат : Matroska
Версия формата : Version 2
Размер файла : 10,1 Гбайт
Продолжительность : 1 ч. 49 м.
Общий поток : 13,1 Мбит/сек
Название фильма : Junior (1994) - Release for HDCLUB
Дата кодирования : UTC 2017-01-29 07:39:09
Программа кодирования : mkvmerge v3.4.0 ('Rapunzel') сборка от May 15 2010 09:38:20
Библиотека кодирования : libebml v0.8.0 + libmatroska v0.9.0
Обложка : Yes
Attachments : cover.jpg / logfile.log
Видео
Идентификатор : 1
Формат : AVC
Формат/Информация : Advanced Video Codec
Профиль формата : High@L4.1
Параметр CABAC формата : Да
Параметр ReFrames формата : 8 кадров
Идентификатор кодека : V_MPEG4/ISO/AVC
Продолжительность : 1 ч. 49 м.
Битрейт : 6753 Кбит/сек
Ширина : 1280 пикселей
Высота : 694 пикселя
Соотношение сторон : 1,85:1
Режим частоты кадров : Постоянный
Частота кадров : 23,976 (24000/1001) кадра/сек
Цветовое пространство : YUV
Субдискретизация насыщенности : 4:2:0
Битовая глубина : 8 бит
Тип развёртки : Прогрессивная
Бит/(Пиксели*Кадры) : 0.317
Размер потока : 5,19 Гбайт (51%)
Заголовок : Junior (1994) - Release for HDCLUB
Библиотека кодирования : x264 core 148 r2744kMod b97ae06
Настройки программы : cabac=1 / ref=8 / deblock=1:-3:-3 / analyse=0x3:0x133 / me=umh / subme=11 / psy=1 / fade_compensate=0.00 / psy_rd=1.05:0.15 / mixed_ref=1 / me_range=32 / chroma_me=1 / trellis=2 / 8x8dct=1 / cqm=0 / deadzone=21,11 / fast_pskip=0 / chroma_qp_offset=-3 / threads=12 / lookahead_threads=3 / sliced_threads=0 / nr=0 / decimate=0 / interlaced=0 / bluray_compat=0 / constrained_intra=0 / bframes=10 / b_pyramid=2 / b_adapt=2 / b_bias=0 / direct=3 / weightb=1 / open_gop=0 / weightp=2 / keyint=240 / keyint_min=23 / scenecut=40 / intra_refresh=0 / rc_lookahead=50 / rc=crf / mbtree=0 / crf=17.1000 / qcomp=0.60 / qpmin=0 / qpmax=69 / qpstep=4 / vbv_maxrate=62500 / vbv_bufsize=78125 / crf_max=0.0 / nal_hrd=none / filler=0 / ip_ratio=1.30 / pb_ratio=1.20 / aq=3:0.75
Язык : English
Default : Да
Forced : Нет
Цветовой диапазон : Limited
Основные цвета : BT.709
Характеристики трансфера : BT.709
Коэффициенты матрицы : BT.709
Аудио #1
Идентификатор : 2
Формат : AC-3
Формат/Информация : Audio Coding 3
Профиль формата : Dolby Digital
Расширение режима : CM (complete main)
Параметр Endianness формата : Big
Идентификатор кодека : A_AC3
Продолжительность : 1 ч. 49 м.
Вид битрейта : Постоянный
Битрейт : 192 Кбит/сек
Каналы : 2 канала
Расположение каналов : Front: L R
Частота : 48,0 КГц
Частота кадров : 31,250 кадров/сек (1536 spf)
Битовая глубина : 16 бит
Метод сжатия : С потерями
Размер потока : 151 Мбайт (1%)
Заголовок : Многоголосый закадровый, R5
Язык : Russian
Default : Да
Forced : Нет
Аудио #2
Идентификатор : 3
Формат : AC-3
Формат/Информация : Audio Coding 3
Профиль формата : Dolby Digital
Расширение режима : CM (complete main)
Параметр Endianness формата : Big
Идентификатор кодека : A_AC3
Продолжительность : 1 ч. 49 м.
Вид битрейта : Постоянный
Битрейт : 192 Кбит/сек
Каналы : 2 канала
Расположение каналов : Front: L R
Частота : 48,0 КГц
Частота кадров : 31,250 кадров/сек (1536 spf)
Битовая глубина : 16 бит
Метод сжатия : С потерями
Размер потока : 151 Мбайт (1%)
Заголовок : Многоголосый закадровый, ТВ-6/СТС
Язык : Russian
Default : Нет
Forced : Нет
Аудио #3
Идентификатор : 4
Формат : AC-3
Формат/Информация : Audio Coding 3
Расширение режима : CM (complete main)
Параметр Endianness формата : Big
Идентификатор кодека : A_AC3
Продолжительность : 1 ч. 49 м.
Вид битрейта : Постоянный
Битрейт : 448 Кбит/сек
Каналы : 6 каналов
Расположение каналов : Front: L C R, Side: L R, LFE
Частота : 48,0 КГц
Частота кадров : 31,250 кадров/сек (1536 spf)
Битовая глубина : 16 бит
Метод сжатия : С потерями
Размер потока : 352 Мбайт (3%)
Заголовок : Двухголосый закадровый, НТВ+
Язык : Russian
Default : Нет
Forced : Нет
Аудио #4
Идентификатор : 5
Формат : AC-3
Формат/Информация : Audio Coding 3
Профиль формата : Dolby Digital
Расширение режима : CM (complete main)
Параметр Endianness формата : Big
Идентификатор кодека : A_AC3
Продолжительность : 1 ч. 49 м.
Вид битрейта : Постоянный
Битрейт : 192 Кбит/сек
Каналы : 2 канала
Расположение каналов : Front: L R
Частота : 48,0 КГц
Частота кадров : 31,250 кадров/сек (1536 spf)
Битовая глубина : 16 бит
Метод сжатия : С потерями
Размер потока : 151 Мбайт (1%)
Заголовок : Двухголосый закадровый, Премьер
Язык : Russian
Default : Нет
Forced : Нет
Аудио #5
Идентификатор : 6
Формат : DTS
Формат/Информация : Digital Theater Systems
Режим : 16
Параметр Endianness формата : Big
Идентификатор кодека : A_DTS
Продолжительность : 1 ч. 49 м.
Вид битрейта : Постоянный
Битрейт : 1509 Кбит/сек
Каналы : 6 каналов
Расположение каналов : Front: L C R, Side: L R, LFE
Частота : 48,0 КГц
Частота кадров : 93,750 кадра/сек (512 spf)
Битовая глубина : 16 бит
Метод сжатия : С потерями
Размер потока : 1,16 Гбайт (11%)
Заголовок : Одноголосый закадровый, А.Гаврилов
Язык : Russian
Default : Нет
Forced : Нет
Аудио #6
Идентификатор : 7
Формат : DTS
Формат/Информация : Digital Theater Systems
Режим : 16
Параметр Endianness формата : Big
Идентификатор кодека : A_DTS
Продолжительность : 1 ч. 49 м.
Вид битрейта : Постоянный
Битрейт : 1509 Кбит/сек
Каналы : 6 каналов
Расположение каналов : Front: L C R, Side: L R, LFE
Частота : 48,0 КГц
Частота кадров : 93,750 кадра/сек (512 spf)
Битовая глубина : 16 бит
Метод сжатия : С потерями
Размер потока : 1,16 Гбайт (11%)
Заголовок : Одноголосый закадровый, С.Визгунов
Язык : Russian
Default : Нет
Forced : Нет
Аудио #7
Идентификатор : 8
Формат : AC-3
Формат/Информация : Audio Coding 3
Расширение режима : CM (complete main)
Параметр Endianness формата : Big
Идентификатор кодека : A_AC3
Продолжительность : 1 ч. 49 м.
Вид битрейта : Постоянный
Битрейт : 192 Кбит/сек
Каналы : 2 канала
Расположение каналов : Front: L R
Частота : 48,0 КГц
Частота кадров : 31,250 кадров/сек (1536 spf)
Битовая глубина : 16 бит
Метод сжатия : С потерями
Размер потока : 151 Мбайт (1%)
Заголовок : Одноголосый закадровый, М.Чадов
Язык : Russian
Default : Нет
Forced : Нет
Аудио #8
Идентификатор : 9
Формат : AC-3
Формат/Информация : Audio Coding 3
Профиль формата : Dolby Digital
Расширение режима : CM (complete main)
Параметр Endianness формата : Big
Идентификатор кодека : A_AC3
Продолжительность : 1 ч. 49 м.
Вид битрейта : Постоянный
Битрейт : 192 Кбит/сек
Каналы : 2 канала
Расположение каналов : Front: L R
Частота : 48,0 КГц
Частота кадров : 31,250 кадров/сек (1536 spf)
Битовая глубина : 16 бит
Метод сжатия : С потерями
Размер потока : 151 Мбайт (1%)
Заголовок : Одноголосый закадровый, А.Пронин
Язык : Russian
Default : Нет
Forced : Нет
Аудио #9
Идентификатор : 10
Формат : AC-3
Формат/Информация : Audio Coding 3
Расширение режима : CM (complete main)
Параметр Endianness формата : Big
Идентификатор кодека : A_AC3
Продолжительность : 1 ч. 49 м.
Вид битрейта : Постоянный
Битрейт : 192 Кбит/сек
Каналы : 1 канал
Расположение каналов : Front: C
Частота : 48,0 КГц
Частота кадров : 31,250 кадров/сек (1536 spf)
Битовая глубина : 16 бит
Метод сжатия : С потерями
Размер потока : 151 Мбайт (1%)
Заголовок : Многоголосый закадровый, Новий канал
Язык : Ukrainian
Default : Нет
Forced : Нет
Аудио #10
Идентификатор : 11
Формат : DTS
Формат/Информация : Digital Theater Systems
Режим : 16
Параметр Endianness формата : Big
Идентификатор кодека : A_DTS
Продолжительность : 1 ч. 49 м.
Вид битрейта : Постоянный
Битрейт : 1509 Кбит/сек
Каналы : 6 каналов
Расположение каналов : Front: L C R, Side: L R, LFE
Частота : 48,0 КГц
Частота кадров : 93,750 кадра/сек (512 spf)
Битовая глубина : 16 бит
Метод сжатия : С потерями
Размер потока : 1,16 Гбайт (11%)
Заголовок : English
Язык : English
Default : Нет
Forced : Нет
Текст #1
Идентификатор : 12
Формат : UTF-8
Идентификатор кодека : S_TEXT/UTF8
Идентификатор кодека/Информация : UTF-8 Plain Text
Заголовок : Russian
Язык : Russian
Default : Нет
Forced : Нет
Текст #2
Идентификатор : 13
Формат : UTF-8
Идентификатор кодека : S_TEXT/UTF8
Идентификатор кодека/Информация : UTF-8 Plain Text
Заголовок : English
Язык : English
Default : Нет
Forced : Нет
Меню
00:00:00.000 : :Main Titles
00:04:48.955 : :The FDA Hearing
00:12:53.272 : :Stealing the Egg
00:23:31.243 : Image009'm Pregnant!
00:34:35.364 : Image009'm Not Myself
00:40:19.208 : :The Dance
01:02:21.988 : :Banes Butts In
01:11:59.773 : :The Other Mother
01:25:02.597 : :Diana Arrives
01:33:07.999 : :The Ambush
01:39:08.525 : :That's Your Baby
01:43:40.797 : :One Year Later

Source vs Encode vs olegek70




Скриншоты

[Profile]  [PM] 
Display posts:    
Reply to topic

Current time is: 09-Dec 04:45

All times are UTC + 2



You cannot post new topics in this forum
You cannot reply to topics in this forum
You cannot edit your posts in this forum
You cannot delete your posts in this forum
You cannot vote in polls in this forum
You cannot attach files in this forum
You cannot download files in this forum