Пираты Карибского моря: На краю Света / Pirates of the Caribbean: At World\'s End (Гор Вербински / Gore Verbinski) [2007, США, фэнтези, боевик, приключения, WEBRip 1080p] [Open Matte] Dub + DVO + 2x AVO + Ukr + Original Eng + Sub Rus, Ukr, Eng

Reply to topic
 
Author
Message

Faust ®

Gender: Unknown

Longevity: 8 years 2 months

Posts: 13748

Reputation: 0 [+] [-]

Faust · Post 11-Feb-2017 20:17

[Quote] 

Пираты Карибского моря: На краю Света / Pirates of the Caribbean: At World's End / Open Matte
Страна: США
Студия: Walt Disney Pictures, Jerry Bruckheimer Films, Second Mate Productions
Жанр: фэнтези, боевик, приключения
Год выпуска: 2007
Продолжительность: 02:48:30
Перевод: Профессиональный (дублированный)
Перевод 2: Профессиональный (двухголосый закадровый) П.Гланц и И.Королёва
Перевод 3: Авторский (одноголосый закадровый) А.Гаврилов
Перевод 4: Авторский (одноголосый закадровый) В.Королёв
Cубтитры:Русские, украинские, английские
Оригинальная аудиодорожка: английский
Режиссер: Гор Вербински / Gore Verbinski
В ролях: Джонни Депп, Джеффри Раш, Орландо Блум, Кира Найтли, Том Холландер, Билл Найи, Стеллан Скарсгард, Наоми Харрис, Джек Девенпорт, Чоу Юнь-Фат
Описание: Новые приключения Джека Воробья и его друзей Уилла Тернера и Элизабет Суонн. На этот раз Уиллу и Элизабет придется объединиться с самим Капитаном Барбоссой для того, чтобы отправиться на край света и спасти своего друга - Джека. Ситуация осложняется тем, что Элизабет попадает к сингапурским пиратам...
Доп.информация:Исходник с онлайн кинотеатра.
Видео ряд локализован.
Open Matte версия фильма имеет большее наполнение кадра, по сравнению с Blu-Ray.
Сэмпл: http://multi-up.com/1138333
Тип релиза: WEBRip 1080p
Контейнер: MKV
Видео: MPEG-4 AVC / 5120 kbps / 1080p / 23.976 fps / 16:9 / High Profile 4.1
Аудио: Russian: 48 kHz, AC3, 3/2 (L,C,R,l,r) + LFE ch, ~640 kbps avg |Дублированный|
Аудио 2: Russian: 48 kHz, DTS, 3/2 (L,C,R,l,r) + LFE ch, ~1509 kbps avg |Двухголосый закадровый, П.Гланц и И.Королёва|
Аудио 3: Russian: 48 kHz, DTS, 3/2 (L,C,R,l,r) + LFE ch, ~1509 kbps avg |Одноголосый закадровый, А.Гаврилов|
Аудио 4: Russian: 48 kHz, DTS, 3/2 (L,C,R,l,r) + LFE ch, ~1509 kbps avg |Одноголосый закадровый, В.Королёв|
Аудио 5: Ukrainian: 48 kHz, AC3, 3/2 (L,C,R,l,r) + LFE ch, ~640 kbps avg |Дублированный|
Аудио 6:English: 48 kHz, DTS, 3/2 (L,C,R,l,r) + LFE ch, ~1509 kbps avg
Формат субтитров: softsub (SRT)

MediaInfo

Общее
Уникальный идентификатор : 187429277742829424035907361103098294225 (0x8D0190DB483533029C21DF5A51DA2FD1)
Полное имя : G:\Pirates of the Caribbean At World's End(2007) WEB-DL 1080p [Open Matte] -BLUEBIRD.mkv
Формат : Matroska
Версия формата : Version 4 / Version 2
Размер файла : 14,4 Гбайт
Продолжительность : 2 ч. 48 м.
Общий поток : 12,2 Мбит/сек
Дата кодирования : UTC 2016-12-27 09:01:16
Программа кодирования : mkvmerge v9.6.0 ('Slave To Your Mind') 64bit
Библиотека кодирования : libebml v1.3.4 + libmatroska v1.4.5
Attachments : Pirates of the Caribbean At World's End.BDRip.1080p.2007.Rus.Eng.Ukr.HDCLUB_chapters.xml
Видео
Идентификатор : 1
Формат : AVC
Формат/Информация : Advanced Video Codec
Профиль формата : High@L4.1
Параметр CABAC формата : Да
Параметр ReFrames формата : 4 кадра
Идентификатор кодека : V_MPEG4/ISO/AVC
Продолжительность : 2 ч. 48 м.
Битрейт : 5120 Кбит/сек
Ширина : 1920 пикселей
Высота : 1080 пикселей
Соотношение сторон : 16:9
Режим частоты кадров : Постоянный
Частота кадров : 23,976 (24000/1001) кадра/сек
Цветовое пространство : YUV
Субдискретизация насыщенности : 4:2:0
Битовая глубина : 8 бит
Тип развёртки : Прогрессивная
Бит/(Пиксели*Кадры) : 0.103
Размер потока : 5,77 Гбайт (40%)
Библиотека кодирования : x264 core 142
Настройки программы : cabac=1 / ref=3 / deblock=1:0:0 / analyse=0x3:0x113 / me=hex / subme=7 / psy=1 / psy_rd=1.00:0.00 / mixed_ref=1 / me_range=16 / chroma_me=1 / trellis=1 / 8x8dct=1 / cqm=0 / deadzone=21,11 / fast_pskip=1 / chroma_qp_offset=-2 / threads=36 / lookahead_threads=6 / sliced_threads=0 / nr=0 / decimate=1 / interlaced=0 / bluray_compat=0 / constrained_intra=0 / bframes=6 / b_pyramid=2 / b_adapt=1 / b_bias=0 / direct=1 / weightb=1 / open_gop=0 / weightp=2 / keyint=200 / keyint_min=20 / scenecut=0 / intra_refresh=0 / rc_lookahead=40 / rc=2pass / mbtree=1 / bitrate=5120 / ratetol=1.0 / qcomp=0.60 / qpmin=0 / qpmax=69 / qpstep=4 / cplxblur=20.0 / qblur=0.5 / vbv_maxrate=7680 / vbv_bufsize=20480 / nal_hrd=none / filler=0 / ip_ratio=1.40 / aq=1:1.00
Язык : English
Default : Да
Forced : Нет
Аудио #1
Идентификатор : 2
Формат : AC-3
Формат/Информация : Audio Coding 3
Расширение режима : CM (complete main)
Параметр Endianness формата : Big
Идентификатор кодека : A_AC3
Продолжительность : 2 ч. 48 м.
Вид битрейта : Постоянный
Битрейт : 640 Кбит/сек
Каналы : 6 каналов
Расположение каналов : Front: L C R, Side: L R, LFE
Частота : 48,0 КГц
Частота кадров : 31,250 кадров/сек (1536 spf)
Битовая глубина : 16 бит
Метод сжатия : С потерями
Размер потока : 771 Мбайт (5%)
Заголовок : Дубляж
Язык : Russian
Default : Да
Forced : Нет
Аудио #2
Идентификатор : 3
Формат : DTS
Формат/Информация : Digital Theater Systems
Режим : 16
Параметр Endianness формата : Big
Идентификатор кодека : A_DTS
Продолжительность : 2 ч. 48 м.
Вид битрейта : Постоянный
Битрейт : 1509 Кбит/сек
Каналы : 6 каналов
Расположение каналов : Front: L C R, Side: L R, LFE
Частота : 48,0 КГц
Частота кадров : 93,750 кадра/сек (512 spf)
Битовая глубина : 24 бит
Метод сжатия : С потерями
Размер потока : 1,78 Гбайт (12%)
Заголовок : П.Гланц и И.Королёва
Язык : Russian
Default : Нет
Forced : Нет
Аудио #3
Идентификатор : 4
Формат : DTS
Формат/Информация : Digital Theater Systems
Режим : 16
Параметр Endianness формата : Big
Идентификатор кодека : A_DTS
Продолжительность : 2 ч. 48 м.
Вид битрейта : Постоянный
Битрейт : 1509 Кбит/сек
Каналы : 6 каналов
Расположение каналов : Front: L C R, Side: L R, LFE
Частота : 48,0 КГц
Частота кадров : 93,750 кадра/сек (512 spf)
Битовая глубина : 24 бит
Метод сжатия : С потерями
Размер потока : 1,78 Гбайт (12%)
Заголовок : А.Гаврилов
Язык : Russian
Default : Нет
Forced : Нет
Аудио #4
Идентификатор : 5
Формат : DTS
Формат/Информация : Digital Theater Systems
Режим : 16
Параметр Endianness формата : Big
Идентификатор кодека : A_DTS
Продолжительность : 2 ч. 48 м.
Вид битрейта : Постоянный
Битрейт : 1509 Кбит/сек
Каналы : 6 каналов
Расположение каналов : Front: L C R, Side: L R, LFE
Частота : 48,0 КГц
Частота кадров : 93,750 кадра/сек (512 spf)
Битовая глубина : 24 бит
Метод сжатия : С потерями
Размер потока : 1,78 Гбайт (12%)
Заголовок : В.Королёв
Язык : Russian
Default : Нет
Forced : Нет
Аудио #5
Идентификатор : 6
Формат : AC-3
Формат/Информация : Audio Coding 3
Расширение режима : CM (complete main)
Параметр Endianness формата : Big
Идентификатор кодека : A_AC3
Продолжительность : 2 ч. 48 м.
Вид битрейта : Постоянный
Битрейт : 640 Кбит/сек
Каналы : 6 каналов
Расположение каналов : Front: L C R, Side: L R, LFE
Частота : 48,0 КГц
Частота кадров : 31,250 кадров/сек (1536 spf)
Битовая глубина : 16 бит
Метод сжатия : С потерями
Размер потока : 771 Мбайт (5%)
Язык : Ukrainian
Default : Нет
Forced : Нет
Аудио #6
Идентификатор : 7
Формат : DTS
Формат/Информация : Digital Theater Systems
Режим : 16
Параметр Endianness формата : Big
Идентификатор кодека : A_DTS
Продолжительность : 2 ч. 48 м.
Вид битрейта : Постоянный
Битрейт : 1509 Кбит/сек
Каналы : 6 каналов
Расположение каналов : Front: L C R, Side: L R, LFE
Частота : 48,0 КГц
Частота кадров : 93,750 кадра/сек (512 spf)
Битовая глубина : 24 бит
Метод сжатия : С потерями
Размер потока : 1,78 Гбайт (12%)
Язык : English
Default : Нет
Forced : Нет
Текст #1
Идентификатор : 8
Формат : UTF-8
Идентификатор кодека : S_TEXT/UTF8
Идентификатор кодека/Информация : UTF-8 Plain Text
Продолжительность : 2 ч. 46 м.
Битрейт : 0 бит/сек
Count of elements : 10
Размер потока : 359 байт (0%)
Язык : Russian
Default : Да
Forced : Нет
Текст #2
Идентификатор : 9
Формат : UTF-8
Идентификатор кодека : S_TEXT/UTF8
Идентификатор кодека/Информация : UTF-8 Plain Text
Продолжительность : 2 ч. 46 м.
Битрейт : 63 бит/сек
Count of elements : 1526
Размер потока : 77,3 Кбайт (0%)
Язык : Russian
Default : Нет
Forced : Нет
Текст #3
Идентификатор : 10
Формат : UTF-8
Идентификатор кодека : S_TEXT/UTF8
Идентификатор кодека/Информация : UTF-8 Plain Text
Продолжительность : 2 ч. 46 м.
Битрейт : 65 бит/сек
Count of elements : 1526
Размер потока : 79,4 Кбайт (0%)
Язык : Ukrainian
Default : Нет
Forced : Нет
Текст #4
Идентификатор : 11
Формат : UTF-8
Идентификатор кодека : S_TEXT/UTF8
Идентификатор кодека/Информация : UTF-8 Plain Text
Продолжительность : 2 ч. 46 м.
Битрейт : 42 бит/сек
Count of elements : 1651
Размер потока : 52,1 Кбайт (0%)
Язык : English
Default : Нет
Forced : Нет
Меню
00:00:00.000 : en:Chapter 00
00:04:33.898 : en:Chapter 01
00:10:01.809 : en:Chapter 02
00:19:58.280 : en:Chapter 03
00:26:07.482 : en:Chapter 04
00:32:47.340 : en:Chapter 05
00:39:40.336 : en:Chapter 06
00:46:04.762 : en:Chapter 07
00:51:31.963 : en:Chapter 08
00:58:03.730 : en:Chapter 09
01:04:50.678 : en:Chapter 10
01:12:46.779 : en:Chapter 11
01:17:54.878 : en:Chapter 12
01:24:46.539 : en:Chapter 13
01:28:41.357 : en:Chapter 14
01:33:34.150 : en:Chapter 15
01:38:05.671 : en:Chapter 16
01:41:52.981 : en:Chapter 17
01:48:12.652 : en:Chapter 18
01:53:13.286 : en:Chapter 19
01:59:31.372 : en:Chapter 20
02:05:52.211 : en:Chapter 21
02:09:13.245 : en:Chapter 22
02:13:53.525 : en:Chapter 23
02:23:19.257 : en:Chapter 24
02:28:15.636 : en:Chapter 25
02:34:29.218 : en:Chapter 26
02:38:48.560 : en:Chapter 27

Сравнение Open matte c BD



Скриншоты


[Profile]  [PM] 
Display posts:    
Reply to topic

Current time is: 15-Dec 12:48

All times are UTC + 2



You cannot post new topics in this forum
You cannot reply to topics in this forum
You cannot edit your posts in this forum
You cannot delete your posts in this forum
You cannot vote in polls in this forum
You cannot attach files in this forum
You cannot download files in this forum