Каратель / The Punisher (Марк Голдблатт / Mark Goldblatt) [1989, Австралия, США, боевик, триллер, драма, BDRip 1080p] MVO (Первый канал) + DVO (Viking Video) + 3x AVO (Гаврилов, Володарский, Махонько) + VO (Есарев) + Original Eng + Sub Rus, Eng

Reply to topic
 
Author
Message

Faust ®

Gender: Unknown

Longevity: 8 years 4 months

Posts: 14016

Reputation: 0 [+] [-]

Faust · Post 11-Feb-2017 20:17

[Quote] 

Каратель / The Punisher- Год выпуска: 1989
Выпущено: Австралия, США
Жанр: боевик, триллер, драма
Продолжительность: 01:29:05
Перевод: Профессиональный (многоголосый, закадровый) Первый канал
+ Профессиональный (двухголосый, закадровый) Viking Video
+ Авторский одноголосый А.Гаврилов
+ Одноголосый закадровый Д.Есарев
+ Авторский одноголосый Л.Володарский
+ Авторский одноголосый В.Махонько
Оригинальная звуковая дорожка: English
Субтитры: Russian, English-Режиссер: Марк Голдблатт / Mark Goldblatt
В ролях: Дольф Лундгрен, Луис Госсет мл., Ерун Краббе, Ким Мийори, Брайан Маршалл, Нэнси Эверхард, Бэрри Отто, Брайан Руни, Зошка Мизак, Кэндзи Ямаки
О фильме: Полицейский Фрэнк Кастл с трудом пережил гибель семьи, его жена и дочь сгорели живьем во взорванном автомобиле. Теперь он стал судьей и палачом 125 гангстеров, которых он разыскал и приговорил к смерти. Его невозможно остановить. Но у него слишком много врагов...
SbR!
Релиз:
Источник: The Punisher 1989 1080p GBR Blu-ray AVC DTS-HD MA 5.1-JonLovejoy
Тип релиза: BDRip 1080p
Контейнер: MKV
Видео: 1916x1036 at 23.976 fps,x264@L4.1,17984 kbps avg
Аудио #01: Russian: 48 kHz, AC3, 2/0 (L,R) ch, ~192 kbps avg |Многоголосый закадровый, Первый канал|
Аудио #02: Russian: 48 kHz, AC3, 2/0 (L,R) ch, ~384 kbps avg |Двухголосый закадровый, Viking Video|
Аудио #03: Russian: 48 kHz/16-bit, DTS 5.1, ~768 kbps avg |Одноголосый закадровый, А.Гаврилов|
Аудио #04: Russian: 48 kHz/16-bit, DTS 5.1, ~768 kbps avg |Одноголосый закадровый, Д.Есарев|
Аудио #05: Russian: 48 kHz, AC3, 2/0 (L,R) ch, ~192 kbps avg |Одноголосый закадровый, Л.Володарский|
Аудио #06: Russian: 48 kHz, AC3, 2/0 (L,R) ch, ~192 kbps avg |Одноголосый закадровый, В.Махонько|
Аудио #07: Ukrainian: 48 kHz, AC3, 2/0 (L,R) ch, ~192 kbps avg |Двухголосый закадровый, 1+1|
Аудио #08: English: 48 kHz/16-bit, DTS 5.1, ~768 kbps avg
Семпл-
-

mInfo

Формат : Matroska
Версия формата : Version 4 / Version 2
Размер файла : 13,0 Гбайт
Продолжительность : 1 ч. 29 м.
Общий поток : 20,9 Мбит/сек
Дата кодирования : UTC 2017-01-31 02:09:26
Программа кодирования : mkvmerge v7.0.0 ('Where We Going') 32bit built on Jun 9 2014 15:08:34
Библиотека кодирования : libebml v1.3.0 + libmatroska v1.4.1
Attachements : cover.jpg
_STATISTICS_WRITING_APP : mkvmerge v7.0.0 ('Where We Going') 32bit built on Jun 9 2014 15:08:34
_STATISTICS_WRITING_DATE_UTC : 2017-01-31 02:09:26
_STATISTICS_TAGS : BPS DURATION NUMBER_OF_FRAMES NUMBER_OF_BYTES
DURATION : 01:21:52.391000000
NUMBER_OF_FRAMES : 961
NUMBER_OF_BYTES : 22330
Видео
Идентификатор : 3
Формат : AVC
Формат/Информация : Advanced Video Codec
Профиль формата : High@L4.1
Параметр CABAC формата : Да
Параметр ReFrames формата : 4 кадра
Идентификатор кодека : V_MPEG4/ISO/AVC
Продолжительность : 1 ч. 29 м.
Битрейт : 17,5 Мбит/сек
Ширина : 1916 пикселей
Высота : 1036 пикселей
Соотношение сторон : 1,85:1
Режим частоты кадров : Постоянный
Частота кадров : 23,976 кадра/сек
Цветовое пространство : YUV
Субдискретизация насыщенности : 4:2:0
Битовая глубина : 8 бит
Тип развёртки : Прогрессивная
Бит/(Пиксели*Кадры) : 0.368
Размер потока : 10,6 Гбайт (82%)
Библиотека кодирования : x264 core 148 r2744+55 950084e t_mod_Custom [8-bit@all X86_64]
Настройки программы : cabac=1 / ref=4 / deblock=1:-3:-3 / analyse=0x3:0x133 / me=umh / subme=10 / psy=1 / fade_compensate=0.00 / psy_rd=1.03:0.05 / mixed_ref=1 / me_range=32 / chroma_me=1 / trellis=2 / 8x8dct=1 / cqm=0 / deadzone=21,11 / fast_pskip=1 / chroma_qp_offset=-3 / threads=6 / lookahead_threads=1 / sliced_threads=0 / nr=0 / decimate=1 / interlaced=0 / bluray_compat=0 / constrained_intra=0 / fgo=0 / bframes=8 / b_pyramid=2 / b_adapt=2 / b_bias=0 / direct=3 / weightb=1 / open_gop=0 / weightp=2 / keyint=250 / keyint_min=23 / scenecut=40 / intra_refresh=0 / rc=2pass / mbtree=0 / bitrate=17500 / ratetol=1.0 / qcomp=0.60 / qpmin=0:0:0 / qpmax=69:69:69 / qpstep=4 / cplxblur=20.0 / qblur=0.5 / ip_ratio=1.30 / pb_ratio=1.20 / aq=3:0.65 / aq-sensitivity=10.00 / aq-factor=1.00:1.00:1.00 / aq2=1:0.60 / aq2-sensitivity=15.00 / aq2-factor=1.00:1.00:1.00 / aq3=1:[0.55:0.55]:[0.55:0.55]:[0.55:0.55]:[0.55:0.55] / aq3-sensitivity=10.00 / aq3-factor=[1.00:1.00]:[1.00:1.00]:[1.00:1.00] / aq3-boundary=192:64:24
Язык : English
Default : Да
Forced : Нет
Коэффициенты матрицы : BT.709
colour_range : Limited
Аудио #1
Идентификатор : 1
Формат : AC-3
Формат/Информация : Audio Coding 3
Расширение режима : CM (complete main)
Параметр Endianness формата : Big
Идентификатор кодека : A_AC3
Продолжительность : 1 ч. 29 м.
Вид битрейта : Постоянный
Битрейт : 192 Кбит/сек
Каналы : 2 канала
Расположение каналов : Front: L R
Частота : 48,0 КГц
Битовая глубина : 16 бит
Метод сжатия : С потерями
Размер потока : 122 Мбайт (1%)
Заголовок : Многоголосый закадровый, Первый канал
Язык : Russian
Default : Да
Forced : Нет
_STATISTICS_WRITING_APP : mkvmerge v7.0.0 ('Where We Going') 32bit built on Jun 9 2014 15:08:34
_STATISTICS_WRITING_DATE_UTC : 2017-01-31 02:09:26
_STATISTICS_TAGS : BPS DURATION NUMBER_OF_FRAMES NUMBER_OF_BYTES
DURATION : 01:29:05.763000000
NUMBER_OF_FRAMES : 128170
NUMBER_OF_BYTES : 11683619889
Аудио #2
Идентификатор : 2
Формат : AC-3
Формат/Информация : Audio Coding 3
Расширение режима : CM (complete main)
Параметр Endianness формата : Big
Идентификатор кодека : A_AC3
Продолжительность : 1 ч. 29 м.
Вид битрейта : Постоянный
Битрейт : 384 Кбит/сек
Каналы : 2 канала
Расположение каналов : Front: L R
Частота : 48,0 КГц
Битовая глубина : 16 бит
Метод сжатия : С потерями
Размер потока : 245 Мбайт (2%)
Заголовок : Двухголосый закадровый, Viking Video
Язык : Russian
Default : Нет
Forced : Нет
Аудио #3
Идентификатор : 4
Формат : DTS
Формат/Информация : Digital Theater Systems
Режим : 16
Параметр Endianness формата : Big
Идентификатор кодека : A_DTS
Продолжительность : 1 ч. 29 м.
Вид битрейта : Постоянный
Битрейт : 768 Кбит/сек
Каналы : 6 каналов
Расположение каналов : Front: L C R, Side: L R, LFE
Частота : 48,0 КГц
Битовая глубина : 24 бит
Метод сжатия : С потерями
Размер потока : 489 Мбайт (4%)
Заголовок : Одноголосый закадровый, А.Гаврилов
Язык : Russian
Default : Нет
Forced : Нет
Аудио #4
Идентификатор : 5
Формат : DTS
Формат/Информация : Digital Theater Systems
Режим : 16
Параметр Endianness формата : Big
Идентификатор кодека : A_DTS
Продолжительность : 1 ч. 29 м.
Вид битрейта : Постоянный
Битрейт : 768 Кбит/сек
Каналы : 6 каналов
Расположение каналов : Front: L C R, Side: L R, LFE
Частота : 48,0 КГц
Битовая глубина : 24 бит
Метод сжатия : С потерями
Размер потока : 489 Мбайт (4%)
Заголовок : Одноголосый закадровый, Д.Есарев
Язык : Russian
Default : Нет
Forced : Нет
Аудио #5
Идентификатор : 6
Формат : AC-3
Формат/Информация : Audio Coding 3
Расширение режима : CM (complete main)
Параметр Endianness формата : Big
Идентификатор кодека : A_AC3
Продолжительность : 1 ч. 29 м.
Вид битрейта : Постоянный
Битрейт : 192 Кбит/сек
Каналы : 2 канала
Расположение каналов : Front: L R
Частота : 48,0 КГц
Битовая глубина : 16 бит
Метод сжатия : С потерями
Размер потока : 122 Мбайт (1%)
Заголовок : Одноголосый закадровый, Л.Володарский
Язык : Russian
Default : Нет
Forced : Нет
Аудио #6
Идентификатор : 7
Формат : AC-3
Формат/Информация : Audio Coding 3
Расширение режима : CM (complete main)
Параметр Endianness формата : Big
Идентификатор кодека : A_AC3
Продолжительность : 1 ч. 29 м.
Вид битрейта : Постоянный
Битрейт : 192 Кбит/сек
Каналы : 2 канала
Расположение каналов : Front: L R
Частота : 48,0 КГц
Битовая глубина : 16 бит
Метод сжатия : С потерями
Размер потока : 122 Мбайт (1%)
Заголовок : Одноголосый закадровый, В.Махонько|
Язык : Russian
Default : Нет
Forced : Нет
Аудио #7
Идентификатор : 8
Формат : AC-3
Формат/Информация : Audio Coding 3
Расширение режима : CM (complete main)
Параметр Endianness формата : Big
Идентификатор кодека : A_AC3
Продолжительность : 1 ч. 29 м.
Вид битрейта : Постоянный
Битрейт : 192 Кбит/сек
Каналы : 2 канала
Расположение каналов : Front: L R
Частота : 48,0 КГц
Битовая глубина : 16 бит
Метод сжатия : С потерями
Размер потока : 122 Мбайт (1%)
Заголовок : Двухголосый закадровый, 1+1
Язык : Ukrainian
Default : Нет
Forced : Нет
Аудио #8
Идентификатор : 9
Формат : DTS
Формат/Информация : Digital Theater Systems
Режим : 16
Параметр Endianness формата : Big
Идентификатор кодека : A_DTS
Продолжительность : 1 ч. 29 м.
Вид битрейта : Постоянный
Битрейт : 768 Кбит/сек
Каналы : 6 каналов
Расположение каналов : Front: L C R, Side: L R, LFE
Частота : 48,0 КГц
Битовая глубина : 24 бит
Метод сжатия : С потерями
Размер потока : 489 Мбайт (4%)
Язык : English
Default : Нет
Forced : Нет
Текст #1
Идентификатор : 10
Формат : UTF-8
Идентификатор кодека : S_TEXT/UTF8
Идентификатор кодека/Информация : UTF-8 Plain Text
Язык : Russian
Default : Нет
Forced : Нет
Текст #2
Идентификатор : 11
Формат : UTF-8
Идентификатор кодека : S_TEXT/UTF8
Идентификатор кодека/Информация : UTF-8 Plain Text
Язык : English
Default : Нет
Forced : Нет
Меню
00:00:00.000 : en:00:00:00.000
00:07:33.452 : en:00:07:33.452
00:15:58.832 : en:00:15:58.832
00:21:38.755 : en:00:21:38.755
00:29:20.759 : en:00:29:20.759
00:37:31.332 : en:00:37:31.332
00:43:20.514 : en:00:43:20.514
00:50:53.467 : en:00:50:53.467
00:58:21.915 : en:00:58:21.915
01:07:28.461 : en:01:07:28.461
01:14:21.039 : en:01:14:21.039
01:21:31.052 : en:01:21:31.052

-
* Релиз доступен благодаря проекту Сборка. Спонсоры Pike, nekazz, rgv, gelom, Insider1.
* Дорожки №3,4 получены путем наложения чистых голосов на центральный канал оригинального DTS-HD MA.
* Перевод Д.Есарева доступен благодаря Kino-profan. Дорожка с переводом В.Махонько от MaDrive очень плохого качества, добавлена чисто для ценителей данного авторского перевода, перевод наложен на какой-то непонятный дубляж.
* Сохранены оригинальные чаптеры как на Blu-ray.
* За коррекцию субтитров большое спасибо Elheym.
[Profile]  [PM] 
Display posts:    
Reply to topic

Current time is: 28-Jan 06:18

All times are UTC + 2



You cannot post new topics in this forum
You cannot reply to topics in this forum
You cannot edit your posts in this forum
You cannot delete your posts in this forum
You cannot vote in polls in this forum
You cannot attach files in this forum
You cannot download files in this forum