187 / One Eight Seven (Кевин Рейнольдс / Kevin Reynolds) [1997, США, триллер, драма, BDRip 1080p] DVO + AVO (Гаврилов) + Original Eng + Sub (Rus, Eng)

Reply to topic
 
Author
Message

Faust ®

Gender: Unknown

Longevity: 8 years 2 months

Posts: 13753

Reputation: 0 [+] [-]

Faust · Post 12-Feb-2017 00:45

[Quote] 

187 / One Eight Seven- Год выпуска: 1997
Выпущено: США
Жанр: триллер, драма
Продолжительность: 01:59:00
Перевод: Профессиональный (двухголосый, закадровый)
+ Авторский одноголосый А.Гаврилов
Оригинальная звуковая дорожка: English
Субтитры: Russian, English-Режиссер: Кевин Рейнольдс / Kevin Reynolds
В ролях: Сэмюэл Л. Джексон, Клифтон Коллинз мл., Джон Хёрд, Тони Плана, Энтвон Тэннер, Ричард Рили, Келли Роуэн, Карина Арройяве, Лобо Себастьян, Джек Келер
О фильме: Где обитают ублюдки? Учитель из Бруклина Тревор Гарфилд видит их каждый день в школе. Это готовые бандиты, от которых можно ждать чего угодно. Один из них из мести совершает попытку убить Гарфилда.
После этого Гарфилд переезжает в Лос-Анджелес и ... оказывается в таком же дерьме. Когда его терпению пришел конец, он заставил подонков расплачиваться кровью за каждый совершенный проступок.
Релиз:
Источник: One Eight Seven 1997 1080p Blu-ray [Custom] AVC DTS-HD MA 2.0-HDCLUB
Тип релиза: BDRip 1080p
Контейнер: MKV
Видео: 1920x1080 at 23.976 fps, x264@L4.1, crf, ~16545 kbps avg
Аудио #01: Russian: 48 kHz/16-bit, AC3, 2/0 (L,R), ~192.00 kbps avg |Двухголосый закадровый|
Аудио #02: Russian: 48 kHz/16-bit, DTS, 2/0 (L,R), ~768.00 kbps avg |Одноголосый закадровый, А.Гаврилов|
Аудио #03: English: 48 kHz/16-bit, DTS, 2/0 (L,R), ~768.00 kbps avg
Аудио #04: English: 48 kHz/16-bit, AC3, 2/0 (L,R), ~192.00 kbps avg |Commentary with Director Kevin Reynolds|
Семпл-

-

mInfo

Формат : Matroska
Версия формата : Version 2
Размер файла : 15,4 Гбайт
Продолжительность : 1 ч. 59 м.
Общий поток : 18,5 Мбит/сек
Название фильма : One Eight Seven (1997) - Release for HDCLUB
Дата кодирования : UTC 2017-02-01 14:57:40
Программа кодирования : mkvmerge v3.4.0 ('Rapunzel') сборка от May 15 2010 09:38:20
Библиотека кодирования : libebml v0.8.0 + libmatroska v0.9.0
Attachements : cover.jpg / logfile.log
Видео
Идентификатор : 1
Формат : AVC
Формат/Информация : Advanced Video Codec
Профиль формата : High@L4.1
Параметр CABAC формата : Да
Параметр ReFrames формата : 4 кадра
Идентификатор кодека : V_MPEG4/ISO/AVC
Продолжительность : 1 ч. 59 м.
Битрейт : 16,2 Мбит/сек
Ширина : 1920 пикселей
Высота : 1080 пикселей
Соотношение сторон : 16:9
Режим частоты кадров : Постоянный
Частота кадров : 23,976 кадра/сек
Цветовое пространство : YUV
Субдискретизация насыщенности : 4:2:0
Битовая глубина : 8 бит
Тип развёртки : Прогрессивная
Бит/(Пиксели*Кадры) : 0.325
Размер потока : 13,5 Гбайт (88%)
Заголовок : One Eight Seven (1997) - Release for HDCLUB
Библиотека кодирования : x264 core 148 r2744kMod b97ae06
Настройки программы : cabac=1 / ref=4 / deblock=1:-3:-3 / analyse=0x3:0x133 / me=umh / subme=11 / psy=1 / fade_compensate=0.00 / psy_rd=1.05:0.00 / mixed_ref=1 / me_range=48 / chroma_me=1 / trellis=2 / 8x8dct=1 / cqm=0 / deadzone=21,11 / fast_pskip=0 / chroma_qp_offset=-2 / threads=12 / lookahead_threads=3 / sliced_threads=0 / nr=0 / decimate=1 / interlaced=0 / bluray_compat=0 / constrained_intra=0 / bframes=12 / b_pyramid=2 / b_adapt=2 / b_bias=0 / direct=3 / weightb=1 / open_gop=0 / weightp=2 / keyint=240 / keyint_min=23 / scenecut=40 / intra_refresh=0 / rc_lookahead=120 / rc=crf / mbtree=0 / crf=17.5000 / qcomp=0.60 / qpmin=0 / qpmax=69 / qpstep=4 / vbv_maxrate=62500 / vbv_bufsize=78125 / crf_max=0.0 / nal_hrd=none / filler=0 / ip_ratio=1.30 / pb_ratio=1.20 / aq=3:0.90
Язык : English
Default : Да
Forced : Нет
Основные цвета : BT.709
Характеристики трансфера : BT.709
Коэффициенты матрицы : BT.709
colour_range : Limited
Аудио #1
Идентификатор : 2
Формат : AC-3
Формат/Информация : Audio Coding 3
Расширение режима : CM (complete main)
Параметр Endianness формата : Big
Идентификатор кодека : A_AC3
Продолжительность : 1 ч. 59 м.
Вид битрейта : Постоянный
Битрейт : 192 Кбит/сек
Каналы : 2 канала
Расположение каналов : Front: L R
Частота : 48,0 КГц
Битовая глубина : 16 бит
Метод сжатия : С потерями
Размер потока : 163 Мбайт (1%)
Заголовок : Двухголосый закадровый
Язык : Russian
Default : Да
Forced : Нет
Аудио #2
Идентификатор : 3
Формат : DTS
Формат/Информация : Digital Theater Systems
Режим : 16
Параметр Endianness формата : Big
Идентификатор кодека : A_DTS
Продолжительность : 1 ч. 59 м.
Вид битрейта : Постоянный
Битрейт : 768 Кбит/сек
Каналы : 2 канала
Расположение каналов : Front: L R
Частота : 48,0 КГц
Битовая глубина : 16 бит
Метод сжатия : С потерями
Размер потока : 654 Мбайт (4%)
Заголовок : Одноголосый закадровый, А.Гаврилов
Язык : Russian
Default : Нет
Forced : Нет
Аудио #3
Идентификатор : 4
Формат : DTS
Формат/Информация : Digital Theater Systems
Режим : 16
Параметр Endianness формата : Big
Идентификатор кодека : A_DTS
Продолжительность : 1 ч. 59 м.
Вид битрейта : Постоянный
Битрейт : 768 Кбит/сек
Каналы : 2 канала
Расположение каналов : Front: L R
Частота : 48,0 КГц
Битовая глубина : 16 бит
Метод сжатия : С потерями
Размер потока : 654 Мбайт (4%)
Заголовок : English
Язык : English
Default : Нет
Forced : Нет
Аудио #4
Идентификатор : 5
Формат : AC-3
Формат/Информация : Audio Coding 3
Расширение режима : CM (complete main)
Параметр Endianness формата : Big
Идентификатор кодека : A_AC3
Продолжительность : 1 ч. 59 м.
Вид битрейта : Постоянный
Битрейт : 192 Кбит/сек
Каналы : 2 канала
Расположение каналов : Front: L R
Частота : 48,0 КГц
Битовая глубина : 16 бит
Метод сжатия : С потерями
Размер потока : 163 Мбайт (1%)
Заголовок : Commentary with Director Kevin Reynolds
Язык : English
Default : Нет
Forced : Нет
Текст #1
Идентификатор : 6
Формат : UTF-8
Идентификатор кодека : S_TEXT/UTF8
Идентификатор кодека/Информация : UTF-8 Plain Text
Заголовок : Russian
Язык : Russian
Default : Нет
Forced : Нет
Текст #2
Идентификатор : 7
Формат : UTF-8
Идентификатор кодека : S_TEXT/UTF8
Идентификатор кодека/Информация : UTF-8 Plain Text
Заголовок : English
Язык : English
Default : Нет
Forced : Нет
Меню
00:00:00.000 : :Chapter 01
00:09:25.439 : :Chapter 02
00:20:04.203 : :Chapter 03
00:30:00.256 : :Chapter 04
00:39:20.733 : :Chapter 05
00:49:31.009 : :Chapter 06
01:00:21.701 : :Chapter 07
01:09:03.722 : :Chapter 08
01:22:40.330 : :Chapter 09
01:32:30.795 : :Chapter 10
01:39:32.800 : :Chapter 11
01:54:39.497 : :Chapter 12

-
* Сохранены оригинальные главы как на Blu-ray.
* За дорожку №1 и русские субтитры большое спасибо Lenape.
* Перевод (чистый голос) А.Гаврилова выкуплен в рамках сервиса "Озвучивание". Спонсоры - HDCLUB: gelom, tambov68, Fireware, goriathid; E180: chontvari, oleg-k, Tagansky, luka69, masta, Nadoelo, ylnian1986, User, uchitel538, Iceman, idalgo.
[Profile]  [PM] 
Display posts:    
Reply to topic

Current time is: 16-Dec 08:58

All times are UTC + 2



You cannot post new topics in this forum
You cannot reply to topics in this forum
You cannot edit your posts in this forum
You cannot delete your posts in this forum
You cannot vote in polls in this forum
You cannot attach files in this forum
You cannot download files in this forum