Маменькин сынок / Mama\'s Boy (Тим Хэмилтон / Tim Hamilton) [2007, США, драма, комедия, WEB-DL 1080p] DVO + Sub Eng + Original Eng

Reply to topic
 
Author
Message

Faust ®

Gender: Unknown

Longevity: 8 years 2 months

Posts: 13753

Reputation: 0 [+] [-]

Faust · Post 12-Feb-2017 00:45

[Quote] 

Маменькин сынок / Mama's Boy- Страна: США
Жанр: драма, комедия
Год выпуска: 2007
Продолжительность: 01:33:06
Перевод: Любительский (двухголосый закадровый)
Cубтитры: английские
Оригинальная аудиодорожка: английский-Режиссер: Тим Хэмилтон / Tim Hamilton
В ролях: Джон Хидер, Дайан Китон, Джефф Дэниелс, Анна Фэрис, Илай Уоллак, Дориан Миссик, Сара Чок, Мэри Кэй Плэйс, Адам Дивайн, Саймон Хелберг-Описание: Экстравагантному Джеффри Маннусу уже 29 лет, а он всё еще живет со своей матерью, Джэн. Он не видит смысла менять такое положение вещей, но его идеальный мир рушится, когда Джэн встречает Мэрта, который успешно ухаживает за Джэн и вскоре вторгается на территорию Джеффри, чего тот потерпеть не может. Джеффри заручается поддержкой малопривлекательной союзницы, композитора Норы, испытывающей к нему расположение. Пока война между Джеффри и Мертом обостряется, случается нечто беспрецедентное — медленно, к удивлению их обоих, Джеффри обнаруживает в себе взрослого.- -Тип релиза: WEB-DL 1080p
Контейнер: MKV
Видео: AVC, 1920x1080, 5307 kbps, 23.976 fps
Аудио 1: AC3, 384 kbps, 5.1 channels, 48000 Hz - DVO
Аудио 2: AC3, 384 kbps, 5.1 channels, 48000 Hz - ENG
Формат субтитров: softsub (SRT)-

Скриншоты


Резервные скриншоты


MediaInfo

Format : Matroska
Format version : Version 2
File size : 4.03 GiB
Duration : 1h 33mn
Overall bit rate : 6 198 Kbps
Movie name : Маменькин сынок / Mama's Boy (2007) WEB-DL 1080p
Encoded date : UTC 2017-02-04 13:46:57
Writing application : mkvmerge v7.8.0 ('River Man') 32bit built on Mar 27 2015 16:18:02
Writing library : libebml v1.3.1 + libmatroska v1.4.2
Cover : Yes
Attachments : cover.png
Video
ID : 1
Format : AVC
Format/Info : Advanced Video Codec
Format profile : High@L4
Format settings, CABAC : Yes
Format settings, ReFrames : 4 frames
Codec ID : V_MPEG4/ISO/AVC
Duration : 1h 33mn
Bit rate : 5 307 Kbps
Width : 1 920 pixels
Height : 1 080 pixels
Display aspect ratio : 16:9
Frame rate mode : Constant
Frame rate : 23.976 (24000/1001) fps
Color space : YUV
Chroma subsampling : 4:2:0
Bit depth : 8 bits
Scan type : Progressive
Bits/(Pixel*Frame) : 0.107
Stream size : 3.45 GiB (86%)
Language : English
Default : Yes
Forced : No
Color range : Limited
Color primaries : BT.709
Transfer characteristics : BT.709
Matrix coefficients : BT.709
Audio #1
ID : 2
Format : AC-3
Format/Info : Audio Coding 3
Mode extension : CM (complete main)
Format settings, Endianness : Big
Codec ID : A_AC3
Duration : 1h 33mn
Bit rate mode : Constant
Bit rate : 384 Kbps
Channel(s) : 6 channels
Channel positions : Front: L C R, Side: L R, LFE
Sampling rate : 48.0 KHz
Frame rate : 31.250 fps (1536 spf)
Compression mode : Lossy
Stream size : 256 MiB (6%)
Title : L2
Language : Russian
Default : Yes
Forced : No
Audio #2
ID : 3
Format : AC-3
Format/Info : Audio Coding 3
Mode extension : CM (complete main)
Format settings, Endianness : Big
Codec ID : A_AC3
Duration : 1h 33mn
Bit rate mode : Constant
Bit rate : 384 Kbps
Channel(s) : 6 channels
Channel positions : Front: L C R, Side: L R, LFE
Sampling rate : 48.0 KHz
Frame rate : 31.250 fps (1536 spf)
Compression mode : Lossy
Stream size : 256 MiB (6%)
Title : Original
Language : English
Default : No
Forced : No
Text
ID : 4
Format : UTF-8
Codec ID : S_TEXT/UTF8
Codec ID/Info : UTF-8 Plain Text
Language : English
Default : No
Forced : No
Menu
00:00:00.000 : en:All Jeffery has
00:04:43.000 : en:Dipping must occur
00:10:09.000 : en:Sting of rejection
00:13:12.000 : en:Coupon for a discount
00:15:59.000 : en:Eyes on Mom
00:20:14.000 : en:Putt puttdown
00:24:41.000 : en:Mert moves in
00:28:03.000 : en:Jeffery moves downstairs
00:33:34.000 : en:Nose for Nora
00:39:57.000 : en:Family picnic
00:45:40.000 : en:Gauntlet thrown
00:50:01.000 : en:Home unbound
00:53:55.000 : en:Nora's joint
00:56:42.000 : en:Road trip
01:01:38.000 : en:Under the stars
01:04:37.000 : en:The other woman
01:08:24.000 : en:Smacking of resentment
01:12:16.000 : en:Homeless
01:16:08.000 : en:Old man's wise advice
01:18:36.000 : en:Rematchmaker
01:23:51.000 : en:Iconic interception
01:26:53.000 : en:End Credits
[Profile]  [PM] 
Display posts:    
Reply to topic

Current time is: 16-Dec 08:58

All times are UTC + 2



You cannot post new topics in this forum
You cannot reply to topics in this forum
You cannot edit your posts in this forum
You cannot delete your posts in this forum
You cannot vote in polls in this forum
You cannot attach files in this forum
You cannot download files in this forum