Встреча со злом / Абсолютное зло / Meeting Evil (Крис Фишер / Chris Fisher) [2012, США, триллер, драма, криминал, детектив, BDRip 720p] MVO (R5) + DVO + VO (Яроцкий) + Original (Eng) + Sub (Rus, Eng)

Reply to topic
 
Author
Message

Faust ®

Gender: Unknown

Longevity: 8 years 10 months

Posts: 14058

Reputation: 0 [+] [-]

Faust · Post 12-Feb-2017 00:45

[Quote] 

Абсолютное зло / Meeting Evil

-
-Страна: США
Студия: Louisiana Entertainment Screen Services - L.E.S.S., Motion Picture Corporation of America (MPCA)
Жанр: триллер, драма, криминал, детектив
Год выпуска: 2012
Продолжительность: 01:28:58--Перевод 1: Профессиональный (многоголосый закадровый) R5
Перевод 2: Любительский (двухголосый закадровый) Чип и Дейл (перевод - Чужая)
Перевод 3: Одноголосый закадровый М. Яроцкий
Cубтитры: русские (R5), английские
Оригинальная аудиодорожка: английский--Режиссер: Крис Фишер / Chris Fisher
В ролях: Сэмюэл Л. Джексон, Люк Уилсон, Лесли Бибб, Пейтон Лист, Трейси Томс, Райан Ли, Мьюз Уотсон, Дж.Д. Эвермор, Джиллиан Басерсон, Джейсон Алан Смит--Описание: Разочарованный жизнью молодой семьянин Джон открывает дверь таинственному незнакомцу Ричи. С этой минуты, сам того не желая, Джон становится участником убийственной поездки, которая преображает его из человека со слабой волей в отчаянного героя, готового пойти на все, чтобы защитить свою семью.--imdb | kinopoisk | Сэмпл--Тип релиза: BDRip 720p [Meeting Evil 2012 720p Bluray DD5.1 x264-DON]
Контейнер: MKV
Видео: MPEG-4 AVC / 4892 kbps / 1280x720 / 23,976 fps / 16:9 / High Profile 4.1
Аудио 1: Russian AC3 / 5.1 / 48 kHz / 384 kbps / 16 bits |MVO, R5|
Аудио 2: Russian AC3 / 2.0 / 48 kHz / 192 kbps / 16 bits |DVO, Чип и Дейл|
Аудио 3: Russian AC3 / 5.1 / 48 kHz / 640 kbps / 16 bits |М. Яроцкий|
Аудио 4: English AC3 / 5.1 / 48 kHz / 640 kbps / 16 bits |original|
Формат субтитров: softsub [SRT]

MediaInfo

Общее
Уникальный идентификатор                 : 235282475550152872714216386942678182278 (0xB101C1AA527835D8A1D22C211A45A986)
Полное имя                               : G:\HD\Абсолютное зло.2012.BDRip.(720p).mkv
Формат                                   : Matroska
Версия формата                           : Version 4 / Version 2
Размер файла                             : 4,20 Гбайт
Продолжительность                        : 1 ч. 29 м.
Общий поток                              : 6742 Кбит/сек
Дата кодирования                         : UTC 2017-02-04 20:15:39
Программа кодирования                    : mkvmerge v9.8.0 ('Kuglblids') 64bit
Библиотека кодирования                   : libebml v1.3.4 + libmatroska v1.4.5
Attachments                              : poster.jpg
Видео
Идентификатор                            : 1
Формат                                   : AVC
Формат/Информация                        : Advanced Video Codec
Профиль формата                          : High@L4.1
Параметр CABAC формата                   : Да
Параметр ReFrames формата                : 9 кадров
Идентификатор кодека                     : V_MPEG4/ISO/AVC
Продолжительность                        : 1 ч. 28 м.
Битрейт                                  : 4892 Кбит/сек
Ширина                                   : 1280 пикселей
Высота                                   : 720 пикселей
Соотношение сторон                       : 16:9
Режим частоты кадров                     : Постоянный
Частота кадров                           : 23,976 (24000/1001) кадра/сек
Цветовое пространство                    : YUV
Субдискретизация насыщенности            : 4:2:0
Битовая глубина                          : 8 бит
Тип развёртки                            : Прогрессивная
Бит/(Пиксели*Кадры)                      : 0.221
Размер потока                            : 3,04 Гбайт (72%)
Заголовок                                : Meeting Evil 2012 720p Bluray DD5.1 x264-DON
Библиотека кодирования                   : x264 core 116 r2057 0ba8a9c
Настройки программы                      : cabac=1 / ref=9 / deblock=1:-3:-3 / analyse=0x3:0x133 / me=umh / subme=10 / psy=1 / psy_rd=1.00:0.00 / mixed_ref=1 / me_range=32 / chroma_me=1 / trellis=2 / 8x8dct=1 / cqm=0 / deadzone=21,11 / fast_pskip=0 / chroma_qp_offset=-2 / threads=18 / sliced_threads=0 / nr=0 / decimate=0 / interlaced=0 / bluray_compat=0 / constrained_intra=0 / bframes=7 / b_pyramid=2 / b_adapt=2 / b_bias=0 / direct=3 / weightb=1 / open_gop=0 / weightp=2 / keyint=250 / keyint_min=23 / scenecut=40 / intra_refresh=0 / rc_lookahead=40 / rc=crf / mbtree=0 / crf=17.0 / qcomp=0.65 / qpmin=0 / qpmax=40 / qpstep=4 / vbv_maxrate=50000 / vbv_bufsize=50000 / crf_max=0.0 / nal_hrd=none / ip_ratio=1.25 / pb_ratio=1.25 / aq=1:0.65
Язык                                     : English
Default                                  : Да
Forced                                   : Нет
Аудио #1
Идентификатор                            : 2
Формат                                   : AC-3
Формат/Информация                        : Audio Coding 3
Расширение режима                        : CM (complete main)
Параметр Endianness формата              : Big
Идентификатор кодека                     : A_AC3
Продолжительность                        : 1 ч. 28 м.
Вид битрейта                             : Постоянный
Битрейт                                  : 384 Кбит/сек
Каналы                                   : 6 каналов
Расположение каналов                     : Front: L C R, Side: L R, LFE
Частота                                  : 48,0 КГц
Частота кадров                           : 31,250 кадров/сек (1536 spf)
Битовая глубина                          : 16 бит
Метод сжатия                             : С потерями
Размер потока                            : 244 Мбайт (6%)
Заголовок                                : MVO, R5
Язык                                     : Russian
Default                                  : Да
Forced                                   : Нет
Аудио #2
Идентификатор                            : 3
Формат                                   : AC-3
Формат/Информация                        : Audio Coding 3
Расширение режима                        : CM (complete main)
Параметр Endianness формата              : Big
Идентификатор кодека                     : A_AC3
Продолжительность                        : 1 ч. 29 м.
Вид битрейта                             : Постоянный
Битрейт                                  : 192 Кбит/сек
Каналы                                   : 2 канала
Расположение каналов                     : Front: L R
Частота                                  : 48,0 КГц
Частота кадров                           : 31,250 кадров/сек (1536 spf)
Битовая глубина                          : 16 бит
Метод сжатия                             : С потерями
Размер потока                            : 122 Мбайт (3%)
Заголовок                                : DVO, Чип и Дейл
Язык                                     : Russian
Default                                  : Нет
Forced                                   : Нет
Аудио #3
Идентификатор                            : 4
Формат                                   : AC-3
Формат/Информация                        : Audio Coding 3
Расширение режима                        : CM (complete main)
Параметр Endianness формата              : Big
Идентификатор кодека                     : A_AC3
Продолжительность                        : 1 ч. 28 м.
Вид битрейта                             : Постоянный
Битрейт                                  : 640 Кбит/сек
Каналы                                   : 6 каналов
Расположение каналов                     : Front: L C R, Side: L R, LFE
Частота                                  : 48,0 КГц
Частота кадров                           : 31,250 кадров/сек (1536 spf)
Битовая глубина                          : 16 бит
Метод сжатия                             : С потерями
Размер потока                            : 407 Мбайт (9%)
Заголовок                                : М. Яроцкий
Язык                                     : Russian
Default                                  : Нет
Forced                                   : Нет
Аудио #4
Идентификатор                            : 5
Формат                                   : AC-3
Формат/Информация                        : Audio Coding 3
Расширение режима                        : CM (complete main)
Параметр Endianness формата              : Big
Идентификатор кодека                     : A_AC3
Продолжительность                        : 1 ч. 28 м.
Вид битрейта                             : Постоянный
Битрейт                                  : 640 Кбит/сек
Каналы                                   : 6 каналов
Расположение каналов                     : Front: L C R, Side: L R, LFE
Частота                                  : 48,0 КГц
Частота кадров                           : 31,250 кадров/сек (1536 spf)
Битовая глубина                          : 16 бит
Метод сжатия                             : С потерями
Размер потока                            : 407 Мбайт (9%)
Язык                                     : English
Default                                  : Нет
Forced                                   : Нет
Текст #1
Идентификатор                            : 6
Формат                                   : UTF-8
Идентификатор кодека                     : S_TEXT/UTF8
Идентификатор кодека/Информация          : UTF-8 Plain Text
Продолжительность                        : 1 ч. 23 м.
Битрейт                                  : 77 бит/сек
Count of elements                        : 1019
Размер потока                            : 47,8 Кбайт (0%)
Заголовок                                : R5
Язык                                     : Russian
Default                                  : Нет
Forced                                   : Нет
Текст #2
Идентификатор                            : 7
Формат                                   : UTF-8
Идентификатор кодека                     : S_TEXT/UTF8
Идентификатор кодека/Информация          : UTF-8 Plain Text
Продолжительность                        : 1 ч. 21 м.
Битрейт                                  : 53 бит/сек
Count of elements                        : 915
Размер потока                            : 31,9 Кбайт (0%)
Язык                                     : English
Default                                  : Нет
Forced                                   : Нет
Меню
00:00:00.000                             : en:00:00:00.000
00:04:34.191                             : en:00:04:34.191
00:10:50.608                             : en:00:10:50.608
00:16:17.059                             : en:00:16:17.059
00:21:29.163                             : en:00:21:29.163
00:25:44.793                             : en:00:25:44.793
00:30:27.034                             : en:00:30:27.034
00:37:13.273                             : en:00:37:13.273
00:42:01.310                             : en:00:42:01.310
00:45:43.324                             : en:00:45:43.324
00:52:52.378                             : en:00:52:52.378
00:55:39.294                             : en:00:55:39.294
01:00:18.073                             : en:01:00:18.073
01:04:46.883                             : en:01:04:46.883
01:11:45.134                             : en:01:11:45.134
01:19:17.544                             : en:01:19:17.544

Скриншоты


Дополнительно

Дорожка №2 взята с этой раздачи thx: flaSI-I
Дорожка №3 получена наложением чистого голоса на центр декодированного DTS-HD MA.
Перевод Михаила Яроцкого доступен благодаря 7654. Работа со звуком - mihaildns.

Meeting Evil 2012 720p Bluray DD5.1 x264-DON

INFO
RUNTIME...........: 1h:28m:00s
RELEASE SIZE......: 3,43 GB
VIDEO CODEC.......: x264, crf17, L4.1
VIDEO BITRATE.....: 4890 Kbps
RESOLUTION........: 1280 X 720
FRAMERATE.........: 23.976 fps
AUDIO.............: English AC-3 @ 640 kbps
SUBS..............: English.
CHAPTERS..........: Yes.
SOURCE............: Meeting Evil 2012 1080p GER Blu-ray AVC DTS-HD MA 5.1-Caribe
ENCODER...........: raphaex
RELEASE DATE......: 30/07/2012
x264 INFO:
x264 [info]: profile High, level 4.1
x264 [info]: frame I:1113  Avg QP:16.14  size:104088
x264 [info]: frame P:27498 Avg QP:17.24  size: 49507
x264 [info]: frame B:99380 Avg QP:19.16  size: 17986
x264 [info]: consecutive B-frames:  1.9%  2.0%  5.6% 30.9% 15.0% 28.7%  5.8% 10.1%
encoded 127991 frames, 9.47 fps, 4892.42 kb/s
GREETS
EastWooD, Vinchi, extreme94, Karakoto007, Nick007,
highvoltage, LoRdScAb, velev1976, fransky, CorrmaC,
snowknight26.
SOURCE X DON


Торрент-файл перезалит 05.02.2017. Добавлен проф. перевод и субтитры с DVDR5 и перевод М. Яроцкого
[Profile]  [PM] 
Display posts:    
Reply to topic

Current time is: 13-Aug 15:38

All times are UTC + 2



You cannot post new topics in this forum
You cannot reply to topics in this forum
You cannot edit your posts in this forum
You cannot delete your posts in this forum
You cannot vote in polls in this forum
You cannot attach files in this forum
You cannot download files in this forum