Восхождение пехотинца / Rise of the Footsoldier (Джулиан Джилби / Julian Jilba) [2007, Великобритания, боевик, драма, криминал, биография, BDRip 720p] [Расширенная версия / Extended Version] AVO (Карповский) + Original Eng + Sub Eng

Reply to topic
 
Author
Message

Faust ®

Gender: Unknown

Longevity: 8 years 2 months

Posts: 13748

Reputation: 0 [+] [-]

Faust · Post 12-Feb-2017 00:45

[Quote] 

Восхождение пехотинца / Rise of the Footsoldier
Расширенная версия / Extended Version
Страна: Великобритания
Студия: Carnaby Films, Hanover Films
Жанр: Боевик, драма, криминал, биография
Год выпуска: 2007
Продолжительность: 02:15:21
Перевод: Авторский (одноголосый закадровый) Антон Карповский
Cубтитры: Английские
Оригинальная аудиодорожка: Английский
Режиссер: Джулиан Джилби / Julian Jilba
В ролях: Риччи Харнетт, Терри Стоун, Крейг Фаирбрасс, Роланд Манукян, Фрэнк Харпер, Билли Мюррэй, Нил Мэскелл, Йен Вирго, Корали Роуз, Кирстон Вэрэйнг, Патрик Режис
Описание: Тяжелый фильм, изобилующий сценами насилия и обсценной лексикой в основе которого жизнь футбольного фаната Карлтона Лича, прошедшего весь сложный и жестокий путь от около-футбольного хулигана до полноценного английского мафиози. Всё начинается с футбола, когда болельщики Вест Хэма ездят по другим городам и вступают в уличные бои с фанатами других клубов. Выбивая зубы, раскраивая черепа, ломая руки, эти ребята попутно заняты поиском своего жизненного предназначения.
Дополнительная информация:
Автор релиза -
Заказ перевода у Антона Карповского (январь 2017) - ylnian
За сборку дороги спасибо rammzez
Источник для рипа - Blu-Ray (UK) - Rise.of.the.Footsoldier.2007.Extended.1080p.Blu-ray.AVC.DTS-HD.MA.5.1-VAiN
Сохранены чаптеры с BD
Описание - из рецензии Антона Карповского
Внимание! Много ненормативной лексики - как в оригинале!


Сэмпл: https://yadi.sk/i/JkmbxPT-3CpbFT
Качество видео: BDRip 720p
Формат видео: MKV
Видео: MPEG-4, 1280x690 (1,85:1), 23.976 fps, 11200 kbps, 0.527 bit/pixel
Аудио 1: Русский DTS 5.1 / 48 kHz / 768 kbps / 16-bit
Аудио 2: Английский DTS 5.1 / 48 kHz / 768 kbps / 16-bit
Формат субтитров: softsub (SRT)

MediaInfo

---[Information] [29.01.2017 22:09:55] x264 [info]: frame I:1344 Avg QP:14.45 size:151260
---[Information] [29.01.2017 22:09:55] x264 [info]: frame P:46913 Avg QP:16.12 size: 86502
---[Information] [29.01.2017 22:09:55] x264 [info]: frame B:146456 Avg QP:18.16 size: 48247
---[Information] [29.01.2017 22:09:55] x264 [info]: consecutive B-frames: 4.0% 5.0% 11.9% 17.4% 13.3% 33.4% 4.9% 2.2% 2.7% 1.2% 1.3% 0.7% 2.0%
---[Information] [29.01.2017 22:09:55] x264 [info]: mb I I16..4: 8.6% 74.8% 16.6%
---[Information] [29.01.2017 22:09:55] x264 [info]: mb P I16..4: 1.7% 34.4% 3.4% P16..4: 17.9% 22.4% 9.7% 1.6% 0.1% skip: 8.8%
---[Information] [29.01.2017 22:09:55] x264 [info]: mb B I16..4: 0.4% 7.0% 0.6% B16..8: 37.6% 25.4% 7.0% direct: 5.9% skip:16.1% L0:41.7% L1:40.1% BI:18.1%
---[Information] [29.01.2017 22:09:55] x264 [info]: 8x8 transform intra:86.8% inter:58.6%
---[Information] [29.01.2017 22:09:55] x264 [info]: direct mvs spatial:31.0% temporal:69.0%
---[Information] [29.01.2017 22:09:55] x264 [info]: coded y,uvDC,uvAC intra: 89.5% 90.9% 82.0% inter: 53.4% 51.2% 21.8%
---[Information] [29.01.2017 22:09:55] x264 [info]: i16 v,h,dc,p: 54% 15% 5% 26%
---[Information] [29.01.2017 22:09:55] x264 [info]: i8 v,h,dc,ddl,ddr,vr,hd,vl,hu: 10% 8% 11% 10% 13% 12% 12% 11% 13%
---[Information] [29.01.2017 22:09:55] x264 [info]: i4 v,h,dc,ddl,ddr,vr,hd,vl,hu: 33% 6% 6% 7% 11% 10% 10% 8% 9%
---[Information] [29.01.2017 22:09:55] x264 [info]: i8c dc,h,v,p: 48% 20% 16% 16%
---[Information] [29.01.2017 22:09:55] x264 [info]: Weighted P-Frames: Y:5.9% UV:3.5%
---[Information] [29.01.2017 22:09:55] x264 [info]: ref P L0: 43.4% 9.5% 18.0% 8.2% 6.4% 4.7% 4.1% 2.7% 2.5% 0.5% 0.0%
---[Information] [29.01.2017 22:09:55] x264 [info]: ref B L0: 70.4% 13.3% 6.5% 3.6% 2.6% 2.1% 1.1% 0.4%
---[Information] [29.01.2017 22:09:55] x264 [info]: ref B L1: 91.7% 8.3%
---[Information] [29.01.2017 22:09:55] x264 [info]: kb/s:11158.43
Общее
Уникальный идентификатор : 180738918210097129951257487328201874988 (0x87F90CAA0BCFB654A440558A2FBF1E2C)
Полное имя : E:\Rise.of.the.Footsoldier.Extended.2007.BDRip.720p-ylnian.mkv
Формат : Matroska
Версия формата : Version 4 / Version 2
Размер файла : 12,0 Гбайт
Продолжительность : 2 ч. 15 м.
Общий поток : 12,7 Мбит/сек
Название фильма : Rise.of.the.Footsoldier.Extended.2007.BDRip.720p-ylnian
Дата кодирования : UTC 2017-02-04 13:17:18
Программа кодирования : mkvmerge v9.8.0 ('Kuglblids') 64bit
Библиотека кодирования : libebml v1.3.4 + libmatroska v1.4.5
Видео
Идентификатор : 1
Формат : AVC
Формат/Информация : Advanced Video Codec
Профиль формата : High@L4.1
Параметр CABAC формата : Да
Параметр ReFrames формата : 9 кадров
Идентификатор кодека : V_MPEG4/ISO/AVC
Продолжительность : 2 ч. 15 м.
Битрейт : 11,2 Мбит/сек
Ширина : 1280 пикселей
Высота : 690 пикселей
Соотношение сторон : 1,85:1
Режим частоты кадров : Постоянный
Частота кадров : 23,976 (24000/1001) кадра/сек
Цветовое пространство : YUV
Субдискретизация насыщенности : 4:2:0
Битовая глубина : 8 бит
Тип развёртки : Прогрессивная
Бит/(Пиксели*Кадры) : 0.527
Размер потока : 10,5 Гбайт (88%)
Заголовок : Rise.of.the.Footsoldier.Extended.2007.BDRip.720p-ylnian
Библиотека кодирования : x264 core 148 r2638 7599210
Настройки программы : cabac=1 / ref=9 / deblock=1:-3:-3 / analyse=0x3:0x133 / me=umh / subme=11 / psy=1 / psy_rd=1.05:0.00 / mixed_ref=1 / me_range=64 / chroma_me=1 / trellis=2 / 8x8dct=1 / cqm=0 / deadzone=21,11 / fast_pskip=0 / chroma_qp_offset=-4 / threads=12 / lookahead_threads=3 / sliced_threads=0 / nr=0 / decimate=1 / interlaced=0 / bluray_compat=0 / constrained_intra=0 / bframes=12 / b_pyramid=2 / b_adapt=2 / b_bias=0 / direct=2 / weightb=1 / open_gop=0 / weightp=2 / keyint=230 / keyint_min=22 / scenecut=40 / intra_refresh=0 / rc_lookahead=100 / rc=crf / mbtree=0 / crf=15.9 / qcomp=0.60 / qpmin=0 / qpmax=69 / qpstep=4 / vbv_maxrate=62500 / vbv_bufsize=78125 / crf_max=0.0 / nal_hrd=none / filler=0 / ip_ratio=1.40 / pb_ratio=1.30 / aq=2:0.80
Язык : English
Default : Да
Forced : Да
Аудио #1
Идентификатор : 2
Формат : DTS
Формат/Информация : Digital Theater Systems
Режим : 16
Параметр Endianness формата : Big
Идентификатор кодека : A_DTS
Продолжительность : 2 ч. 15 м.
Вид битрейта : Постоянный
Битрейт : 768 Кбит/сек
Каналы : 6 каналов
Расположение каналов : Front: L C R, Side: L R, LFE
Частота : 48,0 КГц
Частота кадров : 93,750 кадра/сек (512 spf)
Битовая глубина : 16 бит
Метод сжатия : С потерями
Размер потока : 744 Мбайт (6%)
Заголовок : AVO (DTS 5.1 768 kbps)
Язык : Russian
Default : Да
Forced : Да
Аудио #2
Идентификатор : 3
Формат : DTS
Формат/Информация : Digital Theater Systems
Режим : 16
Параметр Endianness формата : Big
Идентификатор кодека : A_DTS
Продолжительность : 2 ч. 15 м.
Вид битрейта : Постоянный
Битрейт : 768 Кбит/сек
Каналы : 6 каналов
Расположение каналов : Front: L C R, Side: L R, LFE
Частота : 48,0 КГц
Частота кадров : 93,750 кадра/сек (512 spf)
Битовая глубина : 16 бит
Метод сжатия : С потерями
Размер потока : 744 Мбайт (6%)
Заголовок : DTS 5.1 768 kbps
Язык : English
Default : Нет
Forced : Нет
Текст
Идентификатор : 4
Формат : UTF-8
Идентификатор кодека : S_TEXT/UTF8
Идентификатор кодека/Информация : UTF-8 Plain Text
Продолжительность : 2 ч. 9 м.
Битрейт : 69 бит/сек
Count of elements : 1510
Размер потока : 66,1 Кбайт (0%)
Язык : English
Default : Нет
Forced : Нет
Меню
00:00:00.000 : en:00:00:00.000
00:10:55.154 : en:00:10:55.154
00:21:04.597 : en:00:21:04.597
00:32:29.906 : en:00:32:29.906
00:43:41.244 : en:00:43:41.244
00:54:07.744 : en:00:54:07.744
01:05:40.270 : en:01:05:40.270
01:17:42.116 : en:01:17:42.116
01:28:15.874 : en:01:28:15.874
01:39:49.901 : en:01:39:49.901
01:51:46.283 : en:01:51:46.283
02:04:32.298 : en:02:04:32.298

Интересно

- Отличие расширенной версии от театральной - http://www.schnittberichte.com/schnittbericht.php?ID=441059
- Фильм не только реалистичен, но основан на подлинных событиях, имевших место в относительно недавнее время в графстве Эссекс.

Скриншот c названием фильма

Скриншоты

[Profile]  [PM] 
Display posts:    
Reply to topic

Current time is: 15-Dec 11:46

All times are UTC + 2



You cannot post new topics in this forum
You cannot reply to topics in this forum
You cannot edit your posts in this forum
You cannot delete your posts in this forum
You cannot vote in polls in this forum
You cannot attach files in this forum
You cannot download files in this forum