Ночь страшного суда / Judgment Night (Стивен Хопкинс / Stephen Hopkins) [1993, США, Япония, боевик, триллер, драма, BDRip 720p] MVO (Первый канал) + 3x AVO (Живов, Дохалов, Кузнецов) + VO (Яроцкий) + Sub Rus, Eng + Original Eng

Reply to topic
 
Author
Message

Faust ®

Gender: Unknown

Longevity: 8 years 2 months

Posts: 13717

Reputation: 0 [+] [-]

Faust · Post 12-Feb-2017 00:45

[Quote] 

Ночь страшного суда / Judgment Night
Страна: США, Япония
Студия: Largo Entertainment, JVC Entertainment Networks
Жанр: боевик, триллер, драма
Год выпуска: 1993
Продолжительность: 01:49:51
Перевод 1: Профессиональный (многоголосый закадровый) Первый канал
Перевод 2: Авторский (одноголосый закадровый) Ю.Живов
Перевод 3: Одноголосый закадровый М.Яроцкий
Перевод 4: Авторский (одноголосый закадровый) В.Дохалов
Перевод 5: Авторский (одноголосый закадровый) С.Кузнецов
Cубтитры: русские, английские
Оригинальная аудиодорожка: английский
Режиссер: Стивен Хопкинс / Stephen Hopkins
В ролях: Эмилио Эстевес, Кьюба Гудинг мл., Дэнис Лири, Стивен Дорфф, Джереми Пивен, Питер Грин, Эрик Шроди, Майкл Уайзмен, Майкл ДеЛоренцо, Релиуэс Уэбб
Описание: Началом этой истории была попытка объехать автомобильную пробку. Это вылилось в отчаянную борьбу за выживание.- by delia-Сэмпл: https://yadi.sk/i/yjs3p9dl3D3u3d
Тип релиза: BDRip 720p [SbR]
Контейнер: MKV
Видео: h.264, 1280x544, 23.976 fps, 6500 kbps
Аудио #1: Russian: AC3 2.0, 48 kHz, 192 kbps avg |Многоголосый закадровый, Первый канал|
Аудио #2: Russian: DTS 5.1, 48 kHz/16-bit, 1536 kbps avg |Одноголосый закадровый, Ю.Живов|
Аудио #3: Russian: DTS 5.1, 48 kHz/16-bit, 1536 kbps avg |Одноголосый закадровый, М.Яроцкий|
Аудио #4: Russian: AC3 2.0, 48 kHz, 192 kbps avg |Одноголосый закадровый, В.Дохалов|
Аудио #5: Russian: AC3 2.0, 48 kHz, 192 kbps avg |Одноголосый закадровый, С.Кузнецов|
Аудио #6: English: DTS 5.1, 48 kHz/16-bit, 1536 kbps avg |Оригинал|
Формат субтитров: softsub (SRT)

MediaInfo

Полное имя : E:\Judgment.Night.1993.720p.BluRay.5xRus.Eng.HDCLUB-SbR.mkv
Формат : Matroska
Версия формата : Version 4 / Version 2
Размер файла : 8,90 Гбайт
Продолжительность : 1 ч. 49 м.
Общий поток : 11,6 Мбит/сек
Дата кодирования : UTC 2017-02-02 05:34:02
Программа кодирования : mkvmerge v9.8.0 ('Kuglblids') 64bit
Библиотека кодирования : libebml v1.3.4 + libmatroska v1.4.5
Обложка : Yes
Attachments : cover.jpg
Видео
Идентификатор : 1
Формат : AVC
Формат/Информация : Advanced Video Codec
Профиль формата : High@L4.1
Параметр CABAC формата : Да
Параметр ReFrames формата : 12 кадров
Идентификатор кодека : V_MPEG4/ISO/AVC
Продолжительность : 1 ч. 49 м.
Битрейт : 6500 Кбит/сек
Ширина : 1280 пикселей
Высота : 544 пикселя
Соотношение сторон : 2,35:1
Режим частоты кадров : Постоянный
Частота кадров : 23,976 (23976/1000) кадра/сек
Цветовое пространство : YUV
Субдискретизация насыщенности : 4:2:0
Битовая глубина : 8 бит
Тип развёртки : Прогрессивная
Бит/(Пиксели*Кадры) : 0.389
Размер потока : 4,99 Гбайт (56%)
Библиотека кодирования : x264 core 148 r2744+55 950084e t_mod_Custom [8-bit@all X86_64]
Настройки программы : cabac=1 / ref=12 / deblock=1:-3:-3 / analyse=0x3:0x133 / me=umh / subme=10 / psy=1 / fade_compensate=0.00 / psy_rd=1.00:0.05 / mixed_ref=1 / me_range=32 / chroma_me=1 / trellis=2 / 8x8dct=1 / cqm=0 / deadzone=21,11 / fast_pskip=1 / chroma_qp_offset=-3 / threads=6 / lookahead_threads=1 / sliced_threads=0 / nr=0 / decimate=1 / interlaced=0 / bluray_compat=0 / constrained_intra=0 / fgo=0 / bframes=8 / b_pyramid=2 / b_adapt=2 / b_bias=0 / direct=3 / weightb=1 / open_gop=0 / weightp=2 / keyint=250 / keyint_min=23 / scenecut=40 / intra_refresh=0 / rc=2pass / mbtree=0 / bitrate=6500 / ratetol=1.0 / qcomp=0.60 / qpmin=0:0:0 / qpmax=69:69:69 / qpstep=4 / cplxblur=20.0 / qblur=0.5 / ip_ratio=1.30 / pb_ratio=1.20 / aq=1:0.65 / aq-sensitivity=10.00 / aq-factor=1.00:1.00:1.00 / aq2=1:0.60 / aq2-sensitivity=15.00 / aq2-factor=1.00:1.00:1.00 / aq3=1:[0.55:0.55]:[0.55:0.55]:[0.55:0.55]:[0.55:0.55] / aq3-sensitivity=10.00 / aq3-factor=[1.00:1.00]:[1.00:1.00]:[1.00:1.00] / aq3-boundary=192:64:24
Язык : English
Default : Да
Forced : Нет
Цветовой диапазон : Limited
Коэффициенты матрицы : BT.709
Аудио #1
Идентификатор : 2
Формат : AC-3
Формат/Информация : Audio Coding 3
Расширение режима : CM (complete main)
Параметр Endianness формата : Big
Идентификатор кодека : A_AC3
Продолжительность : 1 ч. 49 м.
Вид битрейта : Постоянный
Битрейт : 192 Кбит/сек
Каналы : 2 канала
Расположение каналов : Front: L R
Частота : 48,0 КГц
Частота кадров : 31,250 кадров/сек (1536 spf)
Битовая глубина : 16 бит
Метод сжатия : С потерями
Размер потока : 151 Мбайт (2%)
Заголовок : Многоголосый закадровый, Первый канал
Язык : Russian
Default : Да
Forced : Нет
Аудио #2
Идентификатор : 3
Формат : DTS
Формат/Информация : Digital Theater Systems
Режим : 16
Параметр Endianness формата : Big
Идентификатор кодека : A_DTS
Продолжительность : 1 ч. 49 м.
Вид битрейта : Постоянный
Битрейт : 1509 Кбит/сек
Каналы : 6 каналов
Расположение каналов : Front: L C R, Side: L R, LFE
Частота : 48,0 КГц
Частота кадров : 93,750 кадра/сек (512 spf)
Битовая глубина : 16 бит
Метод сжатия : С потерями
Размер потока : 1,16 Гбайт (13%)
Заголовок : Одноголосый закадровый, Ю.Живов
Язык : Russian
Default : Нет
Forced : Нет
Аудио #3
Идентификатор : 4
Формат : DTS
Формат/Информация : Digital Theater Systems
Режим : 16
Параметр Endianness формата : Big
Идентификатор кодека : A_DTS
Продолжительность : 1 ч. 49 м.
Вид битрейта : Постоянный
Битрейт : 1509 Кбит/сек
Каналы : 6 каналов
Расположение каналов : Front: L C R, Side: L R, LFE
Частота : 48,0 КГц
Частота кадров : 93,750 кадра/сек (512 spf)
Битовая глубина : 16 бит
Метод сжатия : С потерями
Размер потока : 1,16 Гбайт (13%)
Заголовок : Одноголосый закадровый, М.Яроцкий
Язык : Russian
Default : Нет
Forced : Нет
Аудио #4
Идентификатор : 5
Формат : AC-3
Формат/Информация : Audio Coding 3
Расширение режима : CM (complete main)
Параметр Endianness формата : Big
Идентификатор кодека : A_AC3
Продолжительность : 1 ч. 49 м.
Вид битрейта : Постоянный
Битрейт : 192 Кбит/сек
Каналы : 2 канала
Расположение каналов : Front: L R
Частота : 48,0 КГц
Частота кадров : 31,250 кадров/сек (1536 spf)
Битовая глубина : 16 бит
Метод сжатия : С потерями
Размер потока : 151 Мбайт (2%)
Заголовок : Одноголосый закадровый, В.Дохалов
Язык : Russian
Default : Нет
Forced : Нет
Аудио #5
Идентификатор : 6
Формат : AC-3
Формат/Информация : Audio Coding 3
Расширение режима : CM (complete main)
Параметр Endianness формата : Big
Идентификатор кодека : A_AC3
Продолжительность : 1 ч. 49 м.
Вид битрейта : Постоянный
Битрейт : 192 Кбит/сек
Каналы : 2 канала
Расположение каналов : Front: L R
Частота : 48,0 КГц
Частота кадров : 31,250 кадров/сек (1536 spf)
Битовая глубина : 16 бит
Метод сжатия : С потерями
Размер потока : 151 Мбайт (2%)
Заголовок : Одноголосый закадровый, С.Кузнецов
Язык : Russian
Default : Нет
Forced : Нет
Аудио #6
Идентификатор : 7
Формат : DTS
Формат/Информация : Digital Theater Systems
Режим : 16
Параметр Endianness формата : Big
Идентификатор кодека : A_DTS
Продолжительность : 1 ч. 49 м.
Вид битрейта : Постоянный
Битрейт : 1509 Кбит/сек
Каналы : 6 каналов
Расположение каналов : Front: L C R, Side: L R, LFE
Частота : 48,0 КГц
Частота кадров : 93,750 кадра/сек (512 spf)
Битовая глубина : 16 бит
Метод сжатия : С потерями
Размер потока : 1,16 Гбайт (13%)
Язык : English
Default : Нет
Forced : Нет
Текст #1
Идентификатор : 8
Формат : UTF-8
Идентификатор кодека : S_TEXT/UTF8
Идентификатор кодека/Информация : UTF-8 Plain Text
Продолжительность : 1 ч. 45 м.
Битрейт : 92 бит/сек
Count of elements : 1188
Размер потока : 71,3 Кбайт (0%)
Язык : Russian
Default : Нет
Forced : Нет
Текст #2
Идентификатор : 9
Формат : UTF-8
Идентификатор кодека : S_TEXT/UTF8
Идентификатор кодека/Информация : UTF-8 Plain Text
Продолжительность : 1 ч. 45 м.
Битрейт : 47 бит/сек
Count of elements : 1163
Размер потока : 36,5 Кбайт (0%)
Язык : English
Default : Нет
Forced : Нет
Меню
00:00:00.000 : en:00:00:00.000
00:09:00.498 : en:00:09:00.498
00:17:36.555 : en:00:17:36.555
00:28:41.635 : en:00:28:41.635
00:39:48.677 : en:00:39:48.677
00:46:14.521 : en:00:46:14.521
00:54:50.286 : en:00:54:50.286
01:04:59.978 : en:01:04:59.978
01:15:32.402 : en:01:15:32.402
01:22:59.306 : en:01:22:59.306
01:33:45.703 : en:01:33:45.703
01:46:15.493 : en:01:46:15.493

Source vs Encode




Скриншоты

[Profile]  [PM] 
Display posts:    
Reply to topic

Current time is: 09-Dec 03:40

All times are UTC + 2



You cannot post new topics in this forum
You cannot reply to topics in this forum
You cannot edit your posts in this forum
You cannot delete your posts in this forum
You cannot vote in polls in this forum
You cannot attach files in this forum
You cannot download files in this forum