Гиена / Hyena (Герард Джонсон / Gerard Johnson) [2014, Великобритания, драма, криминал, BDRip 720p] VO (Чадов) + Sub Eng + Original Eng

Reply to topic
 
Author
Message

Faust ®

Gender: Unknown

Longevity: 8 years 2 months

Posts: 13717

Reputation: 0 [+] [-]

Faust · Post 12-Feb-2017 13:00

[Quote] 

Гиена / Hyena
Страна: Великобритания
Студия: Film4, Number 9 Films
Жанр: драма, криминал
Год выпуска: 2014
Продолжительность: 01:52:31
Перевод: Одноголосый закадровый М. Чадов (ненормативная лексика)
Cубтитры: английские
Оригинальная аудиодорожка: английский
Режиссер: Герард Джонсон / Gerard Johnson
В ролях: Питер Фердинандо, Стивен Грэм, Нил Мэскелл, Элиза Ласовски, МайАнна Бёринг, Ричард Дормер, Гордон Браун, Тони Питтс, Орли Шука, Джеват Келменди
Описание: Быть хорошим полицейским не означает делать все по учебнику. Но, когда преступная деятельность в Лондоне идет на пользу албанцам и туркам, как выжить «хорошему» полицейскому?- -Сэмпл: https://yadi.sk/i/YBeYM6v_3DhWzK
Тип релиза: BDRip 720p [BLUEBIRD]
Контейнер: MKV
Видео: h.264, 1280x536, 24.000 fps, 5049 kbps
Аудио #1: Russian: DTS 5.1, 48 kHz/24-bit, 1536 kbps avg |Одноголосый закадровый, М. Чадов (ненормативная лексика)|
Аудио #2: English: DTS 5.1, 48 kHz/24-bit, 1536 kbps avg |Оригинал|
Формат субтитров: softsub (SRT)

MediaInfo

Полное имя : E:\Hyena.2014.x264.BDRip.720p.Fre.Transfer.BLUEBIRD.mkv
Формат : Matroska
Версия формата : Version 4 / Version 2
Размер файла : 6,34 Гбайт
Продолжительность : 1 ч. 52 м.
Общий поток : 8070 Кбит/сек
Название фильма : Hyena.2014.x264.BDRip.720p.Fre.Transfer.BLUEBIRD
Дата кодирования : UTC 2017-02-08 10:46:37
Программа кодирования : mkvmerge v7.9.0 ('Birds') 32bit
Библиотека кодирования : libebml v1.3.1 + libmatroska v1.4.2
Видео
Идентификатор : 1
Формат : AVC
Формат/Информация : Advanced Video Codec
Профиль формата : High@L4.1
Параметр CABAC формата : Да
Параметр ReFrames формата : 12 кадров
Идентификатор кодека : V_MPEG4/ISO/AVC
Продолжительность : 1 ч. 52 м.
Битрейт : 5049 Кбит/сек
Ширина : 1280 пикселей
Высота : 536 пикселей
Соотношение сторон : 2,40:1
Режим частоты кадров : Постоянный
Частота кадров : 24,000 кадра/сек
Цветовое пространство : YUV
Субдискретизация насыщенности : 4:2:0
Битовая глубина : 8 бит
Тип развёртки : Прогрессивная
Бит/(Пиксели*Кадры) : 0.307
Размер потока : 3,97 Гбайт (63%)
Заголовок : Hyena.2014.x264.BDRip.720p.Fre.Transfer.BLUEBIRD
Библиотека кодирования : x264 core 148 r2744 b97ae06
Настройки программы : cabac=1 / ref=12 / deblock=1:-3:-3 / analyse=0x3:0x133 / me=esa / subme=10 / psy=1 / psy_rd=1.10:0.15 / mixed_ref=1 / me_range=32 / chroma_me=1 / trellis=2 / 8x8dct=1 / cqm=0 / deadzone=21,11 / fast_pskip=0 / chroma_qp_offset=-3 / threads=12 / lookahead_threads=1 / sliced_threads=0 / nr=0 / decimate=0 / interlaced=0 / bluray_compat=0 / constrained_intra=0 / bframes=6 / b_pyramid=2 / b_adapt=1 / b_bias=0 / direct=3 / weightb=1 / open_gop=0 / weightp=2 / keyint=240 / keyint_min=24 / scenecut=40 / intra_refresh=0 / rc_lookahead=60 / rc=crf / mbtree=0 / crf=18.5 / qcomp=0.75 / qpmin=0 / qpmax=69 / qpstep=4 / vbv_maxrate=62500 / vbv_bufsize=78125 / crf_max=0.0 / nal_hrd=none / filler=0 / ip_ratio=1.40 / pb_ratio=1.30 / aq=1:0.92 / zones=0,1700,q=26/1701,3600,q=16/4108,4270,q=19/4957,5565,q=16/6150,6337,q=19/6455,7779,q=15/11928,12328,q=20/17569,17975,q=20/30196,30442,q=26/39060,39264,q=26/39266,40294,q=15/42820,44918,q=15/61489,63529,q=15/80985,81655,q=15/83977,84877,q=16/110588,111936,q=22/136024,136175,q=19/137801,137893,q=16/138162,139091,q=19/155406,162033,q=30
Язык : English
Default : Да
Forced : Нет
Аудио #1
Идентификатор : 2
Формат : DTS
Формат/Информация : Digital Theater Systems
Режим : 16
Параметр Endianness формата : Big
Идентификатор кодека : A_DTS
Продолжительность : 1 ч. 52 м.
Вид битрейта : Постоянный
Битрейт : 1509 Кбит/сек
Каналы : 6 каналов
Расположение каналов : Front: L C R, Side: L R, LFE
Частота : 48,0 КГц
Частота кадров : 93,750 кадра/сек (512 spf)
Битовая глубина : 24 бит
Метод сжатия : С потерями
Размер потока : 1,19 Гбайт (19%)
Заголовок : Авторский одноголосый (М. Чадов(
Язык : Russian
Default : Да
Forced : Нет
Аудио #2
Идентификатор : 3
Формат : DTS
Формат/Информация : Digital Theater Systems
Режим : 16
Параметр Endianness формата : Big
Идентификатор кодека : A_DTS
Продолжительность : 1 ч. 52 м.
Вид битрейта : Постоянный
Битрейт : 1509 Кбит/сек
Каналы : 6 каналов
Расположение каналов : Front: L C R, Side: L R, LFE
Частота : 48,0 КГц
Частота кадров : 93,750 кадра/сек (512 spf)
Битовая глубина : 24 бит
Метод сжатия : С потерями
Размер потока : 1,19 Гбайт (19%)
Язык : English
Default : Нет
Forced : Нет
Текст
Идентификатор : 4
Формат : UTF-8
Идентификатор кодека : S_TEXT/UTF8
Идентификатор кодека/Информация : UTF-8 Plain Text
Продолжительность : 1 ч. 43 м.
Битрейт : 37 бит/сек
Count of elements : 950
Размер потока : 28,6 Кбайт (0%)
Заголовок : full
Язык : English
Default : Нет
Forced : Нет
Меню
00:00:00.000 : :00:00:00.000
00:08:44.708 : :00:08:44.708
00:19:15.958 : :00:19:15.958
00:26:14.417 : :00:26:14.417
00:35:18.417 : :00:35:18.417
00:46:03.583 : :00:46:03.583
00:56:42.333 : :00:56:42.333
01:08:36.375 : :01:08:36.375
01:19:43.917 : :01:19:43.917
01:28:57.708 : :01:28:57.708
01:35:56.917 : :01:35:56.917
01:47:59.750 : :01:47:59.750

log x264

x264 [info]: frame I:1809 Avg QP:14.61 size: 95476
x264 [info]: frame P:34620 Avg QP:16.33 size: 54606
x264 [info]: frame B:125605 Avg QP:18.96 size: 17498

Скриншоты

[Profile]  [PM] 
Display posts:    
Reply to topic

Current time is: 09-Dec 03:56

All times are UTC + 2



You cannot post new topics in this forum
You cannot reply to topics in this forum
You cannot edit your posts in this forum
You cannot delete your posts in this forum
You cannot vote in polls in this forum
You cannot attach files in this forum
You cannot download files in this forum