Попай / Popeye (Роберт Олтмен / Robert Altman) [1980, США, комедия, WEB-DL 1080p] AVO (Юрий Живов) + Sub Eng + Original Eng

Reply to topic
 
Author
Message

Faust ®

Gender: Unknown

Longevity: 8 years 10 months

Posts: 14058

Reputation: 0 [+] [-]

Faust · Post 12-Feb-2017 13:00

[Quote] 

Попай / Popeye
Страна: США
Жанр: комедия
Год выпуска: 1980
Продолжительность: 01:53:57
Перевод: Авторский (одноголосый закадровый) Юрий Живов
Cубтитры: английские
Оригинальная аудиодорожка: английский
Режиссер: Роберт Олтмен / Robert Altman
В ролях: Робин Уильямс, Шелли Дювалл, Рей Уолстон, Пол Дули, Пол Л. Смит, Ричард Либертини, Дональд Моффет, МакИнтайр Диксон, Роберта Максвелл, Донован Скотт...
Описание: В поисках отца Попай оказывается в приморском городке Свитхевен. Там он влюбляется в прекрасную Олив, однако ее рука уже обещана здоровяку Блуто, и это становится препятствием их любви.
Доп. информация: Перевод Живова с раздачи VladimirMetall. Синхронизация звука - Dreven.
Сэмпл: http://sendfile.su/1307093
Тип релиза: WEB-DL 1080p
Контейнер: MKV
Видео: 1920x800 (2.40:1), 23.976 fps, AVC, ~9324 Kbps, 0.253 bits/pixel
Аудио 1: Russian, 48.0 KHz, AC3, 2 ch, 192 Kbps - Юрий Живов
Аудио 2: English, 48.0 KHz, AC3+, 6 ch, 640 Kbps

MediaInfo

General
Unique ID : 240786528023199597838743038101493047309 (0xB525CC6761EB01DC8A6E44C6898AE00D)
Complete name : D:\Popeye. WEB-DL 1080p.mkv
Format : Matroska
Format version : Version 4 / Version 2
File size : 8.25 GiB
Duration : 1h 53mn
Overall bit rate mode : Variable
Overall bit rate : 10.4 Mbps
Encoded date : UTC 2017-02-09 06:55:21
Writing application : mkvmerge v9.8.0 ('Kuglblids') 64bit
Writing library : libebml v1.3.4 + libmatroska v1.4.5
Video
ID : 1
Format : AVC
Format/Info : Advanced Video Codec
Format profile : High@L4
Format settings, CABAC : Yes
Format settings, ReFrames : 4 frames
Codec ID : V_MPEG4/ISO/AVC
Duration : 1h 53mn
Bit rate mode : Variable
Bit rate : 9 528 Kbps
Maximum bit rate : 15.0 Mbps
Width : 1 920 pixels
Height : 800 pixels
Display aspect ratio : 2.40:1
Frame rate mode : Constant
Frame rate : 23.976 (24000/1001) fps
Color space : YUV
Chroma subsampling : 4:2:0
Bit depth : 8 bits
Scan type : Progressive
Bits/(Pixel*Frame) : 0.259
Stream size : 7.58 GiB (92%)
Writing library : x264 core 148 r2623 d5b2374
Encoding settings : cabac=1 / ref=4 / deblock=1:-1:-1 / analyse=0x3:0x133 / me=umh / subme=9 / psy=1 / psy_rd=1.00:0.15 / mixed_ref=1 / me_range=24 / chroma_me=1 / trellis=2 / 8x8dct=1 / cqm=0 / deadzone=21,11 / fast_pskip=1 / chroma_qp_offset=-3 / threads=25 / lookahead_threads=4 / sliced_threads=0 / nr=150 / decimate=1 / interlaced=0 / bluray_compat=0 / constrained_intra=0 / bframes=8 / b_pyramid=2 / b_adapt=2 / b_bias=0 / direct=3 / weightb=1 / open_gop=0 / weightp=2 / keyint=120 / keyint_min=61 / scenecut=0 / intra_refresh=0 / rc_lookahead=120 / rc=crf / mbtree=1 / crf=18.0 / qcomp=0.60 / qpmin=0 / qpmax=69 / qpstep=4 / vbv_maxrate=15000 / vbv_bufsize=31250 / crf_max=0.0 / nal_hrd=vbr / filler=0 / ip_ratio=1.40 / aq=3:1.00
Language : English
Default : Yes
Forced : No
Color range : Limited
Color primaries : BT.709
Transfer characteristics : BT.709
Matrix coefficients : BT.709
Audio #1
ID : 2
Format : AC-3
Format/Info : Audio Coding 3
Mode extension : CM (complete main)
Format settings, Endianness : Big
Codec ID : A_AC3
Duration : 1h 53mn
Bit rate mode : Constant
Bit rate : 192 Kbps
Channel(s) : 2 channels
Channel positions : Front: L R
Sampling rate : 48.0 KHz
Frame rate : 31.250 fps (1536 spf)
Compression mode : Lossy
Stream size : 156 MiB (2%)
Title : Юрий Живов
Language : Russian
Default : Yes
Forced : No
Audio #2
ID : 3
Format : E-AC-3
Format/Info : Audio Coding 3
Format settings, Endianness : Big
Codec ID : A_EAC3
Duration : 1h 53mn
Bit rate mode : Constant
Bit rate : 640 Kbps
Channel(s) : 6 channels
Channel positions : Front: L C R, Side: L R, LFE
Sampling rate : 48.0 KHz
Frame rate : 187.500 fps (256 spf)
Compression mode : Lossy
Stream size : 522 MiB (6%)
Language : English
Default : No
Forced : No
Text
ID : 4
Format : UTF-8
Codec ID : S_TEXT/UTF8
Codec ID/Info : UTF-8 Plain Text
Duration : 1h 50mn
Bit rate : 86 bps
Count of elements : 2653
Stream size : 69.8 KiB (0%)
Language : English
Default : No
Forced : No

Скриншоты

[Profile]  [PM] 
Display posts:    
Reply to topic

Current time is: 13-Aug 16:08

All times are UTC + 2



You cannot post new topics in this forum
You cannot reply to topics in this forum
You cannot edit your posts in this forum
You cannot delete your posts in this forum
You cannot vote in polls in this forum
You cannot attach files in this forum
You cannot download files in this forum