Ущербность / Prejudice (Антуан Кюйперс / Antoine Cuypers) [2015, Бельгия, Люксембург, Нидерланды, драма, WEB-DL 1080p] Sub (Rus, Eng, Fre, Ger) + Original (Fre)

Reply to topic
 
Author
Message

Faust ®

Gender: Unknown

Longevity: 8 years 2 months

Posts: 13739

Reputation: 0 [+] [-]

Faust · Post 12-Feb-2017 13:00

[Quote] 

Ущербность / Prejudice
Страна: Бельгия, Люксембург, Нидерланды
Жанр: драма
Год выпуска: 2015
Продолжительность: 01:42:37
Перевод: Субтитры
Cубтитры: английские, немецкие, французские, русские
Оригинальная аудиодорожка: французский
Режиссер: Антуан Кюйперс / Antoine Cuypers
В ролях: Ариана Лабед, Натали Бай, Жюльен Бомгартнер, Эрик Каравака, Арно, Томас Бланчард, Кэти Мин Юнг, Arthur Bols
Описание:
Во время семейной трапезы тридцатилетний Седрик, по-прежнему проживающий со своими родителями, узнает, что его сестра ждет ребенка. В то время как все с радостью воспринимают эту новость, Седрик ощущает злость, которая перерастает в ярость. Он пытается тогда выставить себя в глазах других жертвой постоянной несправедливости. Между несказанным и паранойей, возмущением и притворством, до каких пределов может дойти семья, чтобы сохранить своё равновесие?
- ||

участник фестиваля
2O17 года

-
Тип релиза: WEB-DL 1080p
Контейнер: MKV
Видео: AVC (x264), 1916x800 (2.40:1) at 25,000 fps, 4368 Кbps
Аудио 1: AC3; 384 Kbps; CBR; 6 ch; 48 khz | Французский |
Формат субтитров: softsub (SRT);

Скриншоты || x264 Info || MediaInfo || Notes

MediaInfo

General
Unique ID                                : 238549407617123405398287930316407828547 (0xB376F1DA1FDE063EA428CA259925F043)
Complete name                            : Ущербность.2015.RUSSUB.1080p.WEB-DL.x264-SiGeRiS.mkv
Format                                   : Matroska
Format version                           : Version 4 / Version 2
File size                                : 3.48 GiB
Duration                                 : 1h 42mn
Overall bit rate                         : 4 848 Kbps
Movie name                               : Prejudice [2015] [1080p] RUSSUB
Encoded date                             : UTC 2017-02-08 16:59:43
Writing application                      : mkvmerge v7.8.0 ('River Man') 32bit built on Mar 27 2015 16:18:02
Writing library                          : libebml v1.3.1 + libmatroska v1.4.2
Video
ID                                       : 1
Format                                   : AVC
Format/Info                              : Advanced Video Codec
Format profile                           : High@L4.0
Format settings, CABAC                   : Yes
Format settings, ReFrames                : 5 frames
Codec ID                                 : V_MPEG4/ISO/AVC
Duration                                 : 1h 42mn
Bit rate                                 : 4 368 Kbps
Width                                    : 1 916 pixels
Height                                   : 800 pixels
Display aspect ratio                     : 2.40:1
Frame rate mode                          : Constant
Frame rate                               : 25.000 fps
Color space                              : YUV
Chroma subsampling                       : 4:2:0
Bit depth                                : 8 bits
Scan type                                : Progressive
Bits/(Pixel*Frame)                       : 0.114
Stream size                              : 3.13 GiB (90%)
Title                                    : profile.php?mode=viewprofile&u=22488948
Language                                 : French
Default                                  : Yes
Forced                                   : No
Color primaries                          : BT.709
Transfer characteristics                 : BT.709
Matrix coefficients                      : BT.709
Color range                              : Limited
Audio
ID                                       : 2
Format                                   : AC-3
Format/Info                              : Audio Coding 3
Mode extension                           : CM (complete main)
Format settings, Endianness              : Big
Codec ID                                 : A_AC3
Duration                                 : 1h 42mn
Bit rate mode                            : Constant
Bit rate                                 : 384 Kbps
Channel(s)                               : 6 channels
Channel positions                        : Front: L C R, Side: L R, LFE
Sampling rate                            : 48.0 KHz
Bit depth                                : 16 bits
Compression mode                         : Lossy
Stream size                              : 282 MiB (8%)
Language                                 : French
Default                                  : Yes
Forced                                   : No
Text #1
ID                                       : 3
Format                                   : UTF-8
Codec ID                                 : S_TEXT/UTF8
Codec ID/Info                            : UTF-8 Plain Text
Language                                 : Russian
Default                                  : Yes
Forced                                   : No
Text #2
ID                                       : 4
Format                                   : UTF-8
Codec ID                                 : S_TEXT/UTF8
Codec ID/Info                            : UTF-8 Plain Text
Language                                 : English
Default                                  : No
Forced                                   : No
Text #3
ID                                       : 5
Format                                   : UTF-8
Codec ID                                 : S_TEXT/UTF8
Codec ID/Info                            : UTF-8 Plain Text
Language                                 : German
Default                                  : No
Forced                                   : No
Text #4
ID                                       : 6
Format                                   : UTF-8
Codec ID                                 : S_TEXT/UTF8
Codec ID/Info                            : UTF-8 Plain Text
Language                                 : French
Default                                  : No
Forced                                   : No
За поиск исходника, огромная благодарность Slipknot_cooler
[Profile]  [PM] 
Display posts:    
Reply to topic

Current time is: 15-Dec 04:09

All times are UTC + 2



You cannot post new topics in this forum
You cannot reply to topics in this forum
You cannot edit your posts in this forum
You cannot delete your posts in this forum
You cannot vote in polls in this forum
You cannot attach files in this forum
You cannot download files in this forum