Домашняя вечеринка / House Party (Реджинальд Хадлин / Reginald Hudlin) [1990, США, мелодрама, комедия, музыка, WEB-DL 1080p] MVO (ВГТРК) + AVO (Горчаков) + Sub Eng + Original Eng

Reply to topic
 
Author
Message

Faust ®

Gender: Unknown

Longevity: 8 years 2 months

Posts: 13717

Reputation: 0 [+] [-]

Faust · Post 12-Feb-2017 13:00

[Quote] 

Домашняя вечеринка / House Party- Страна: США
Жанр: мелодрама, комедия, музыка
Год выпуска: 1990
Продолжительность: 01:44:05
Перевод 1: Профессиональный (многоголосый закадровый) ВГТРК
Перевод 2: Авторский (одноголосый закадровый) Василий Горчаков
Cубтитры: английские
Оригинальная аудиодорожка: английский-Режиссер: Реджинальд Хадлин / Reginald Hudlin
В ролях: Кристофер Рид, Робин Харрис, Кристофер Мартин, Мартин Лоуренс, Тиша Кэмпбелл, Эдриенн-Джой Джонсон, Пол Энтони, Бау-Леггд Лу, Би-Файн, Эдит Филдс-Описание: Плэй собирается устроить у себя вечеринку и зазывает на нее половину «черного» квартала. Его друзья, Бэлал и Кид, придут туда крутить диски и читать рэп. Вместе с ними собирается придти пара внимательных полицейских, доведенный до отчаяния сосед Плэя с супругой и трое местных головорезов. У последних в программе вечера намечен поджог хозяйского дома.-Доп. информация: Дорожки с переводами из этой раздачи. Спасибо JIuI3epIIyJIb
-Тип релиза: WEB-DL 1080p
Контейнер: MKV
Видео: AVC, 1916x1076, 5164 kbps, 23.976 fps
Аудио 1: AC3, 192 kbps, 2.0 channels, 48000 Hz - MVO (ВГТРК)
Аудио 2: AC3, 192 kbps, 2.0 channels, 48000 Hz - AVO (В. Горчаков)
Аудио 3: AC3, 384 kbps, 5.1 channels, 48000 Hz - ENG
Формат субтитров: softsub (SRT)-

Скриншоты


Резервные скриншоты


MediaInfo

Format : Matroska
Format version : Version 2
File size : 4.40 GiB
Duration : 1 h 44 min
Overall bit rate : 6 052 kb/s
Movie name : Домашняя вечеринка / House Party (1990) WEB-DL 1080p
Encoded date : UTC 2017-02-08 12:57:24
Writing application : mkvmerge v9.8.0 ('Kuglblids') 32bit
Writing library : libebml v1.3.4 + libmatroska v1.4.5
Cover : Yes
Attachments : Cover.png
Video
ID : 1
Format : AVC
Format/Info : Advanced Video Codec
Format profile : High@L4
Format settings, CABAC : Yes
Format settings, ReFrames : 4 frames
Codec ID : V_MPEG4/ISO/AVC
Duration : 1 h 44 min
Bit rate : 5 164 kb/s
Width : 1 916 pixels
Height : 1 076 pixels
Display aspect ratio : 16:9
Frame rate mode : Constant
Frame rate : 23.976 FPS
Color space : YUV
Chroma subsampling : 4:2:0
Bit depth : 8 bits
Scan type : Progressive
Bits/(Pixel*Frame) : 0.104
Stream size : 3.75 GiB (85%)
Language : English
Default : Yes
Forced : No
Color range : Limited
Color primaries : BT.709
Transfer characteristics : BT.709
Matrix coefficients : BT.709
Audio #1
ID : 2
Format : AC-3
Format/Info : Audio Coding 3
Mode extension : CM (complete main)
Format settings, Endianness : Big
Codec ID : A_AC3
Duration : 1 h 44 min
Bit rate mode : Constant
Bit rate : 192 kb/s
Channel(s) : 2 channels
Channel positions : Front: L R
Sampling rate : 48.0 kHz
Frame rate : 31.250 FPS (1536 spf)
Compression mode : Lossy
Stream size : 143 MiB (3%)
Title : MVO - ВГТРК
Language : Russian
Default : Yes
Forced : No
Audio #2
ID : 3
Format : AC-3
Format/Info : Audio Coding 3
Mode extension : CM (complete main)
Format settings, Endianness : Big
Codec ID : A_AC3
Duration : 1 h 44 min
Bit rate mode : Constant
Bit rate : 192 kb/s
Channel(s) : 2 channels
Channel positions : Front: L R
Sampling rate : 48.0 kHz
Frame rate : 31.250 FPS (1536 spf)
Compression mode : Lossy
Stream size : 143 MiB (3%)
Title : AVO - Горчаков
Language : Russian
Default : No
Forced : No
Audio #3
ID : 4
Format : AC-3
Format/Info : Audio Coding 3
Mode extension : CM (complete main)
Format settings, Endianness : Big
Codec ID : A_AC3
Duration : 1 h 44 min
Bit rate mode : Constant
Bit rate : 384 kb/s
Channel(s) : 6 channels
Channel positions : Front: L C R, Side: L R, LFE
Sampling rate : 48.0 kHz
Frame rate : 31.250 FPS (1536 spf)
Compression mode : Lossy
Stream size : 286 MiB (6%)
Language : English
Default : No
Forced : No
Text
ID : 5
Format : UTF-8
Codec ID : S_TEXT/UTF8
Codec ID/Info : UTF-8 Plain Text
Language : English
Default : No
Forced : No
Menu
00:00:00.000 : en:Chapter 1
00:02:05.000 : en:Chapter 2
00:09:05.000 : en:Chapter 3
00:12:21.000 : en:Chapter 4
00:17:25.000 : en:Chapter 5
00:23:00.000 : en:Chapter 6
00:27:30.000 : en:Chapter 7
00:31:22.000 : en:Chapter 8
00:38:31.000 : en:Chapter 9
00:42:44.000 : en:Chapter 10
00:49:34.000 : en:Chapter 11
00:53:37.000 : en:Chapter 12
00:56:04.000 : en:Chapter 13
01:01:26.000 : en:Chapter 14
01:06:42.000 : en:Chapter 15
01:12:25.000 : en:Chapter 16
01:19:12.000 : en:Chapter 17
01:22:07.000 : en:Chapter 18
01:25:00.000 : en:Chapter 19
01:29:10.000 : en:Chapter 20
01:32:46.000 : en:Chapter 21
01:37:41.000 : en:Chapter 22
[Profile]  [PM] 
Display posts:    
Reply to topic

Current time is: 09-Dec 03:55

All times are UTC + 2



You cannot post new topics in this forum
You cannot reply to topics in this forum
You cannot edit your posts in this forum
You cannot delete your posts in this forum
You cannot vote in polls in this forum
You cannot attach files in this forum
You cannot download files in this forum